Ищейка / Своя-чужая [серии 1-16 из 16] (Андрей Элинсон) [2015, детектив, SATRip]

 

Создавать темы 31-Июл-2015 16:14

Ищейка (Своя-чужая) (серии 1-16 из 16) -
Производство: Россия, Студия "Панорама" по заказу ООО «Форвард-Фильм»
Жанр: детектив
Режиссер: Андрей Элинсон
Актеры: Мария Шукшина, Борис Каморзин, Владимир Епифанцев, Анатолий Лобоцкий, Андрей Феськов, Владимир Матвеев, Кирилл Ульянов, Михаил Трясоруков, Николай Смирнов (V), Михаил Бракоренко, Владислав Резник, Юрий Евсюков (III), Егор Закреничный, Ирина Патракова, Денис Портнов, Карина Медведева, Ринат Муталлапов, Игорь Василевский, Андрей Некрасов (III), Ирина Сотикова, Диана Дезмари, Денис Пьянов, Ким Дружинин, Мария Павлова, Дмитрий Соловьёв (V), Мария Русских, Наталья Мызникова, Кристина Оленникова, Юрий Ковалёв, Михаил Хмуров, Кристина Дасарская, Андрей Павловец, Дмитрий Мухамадеев
Описание:
Сенсационное назначение на должность начальника "убойного отдела" ГУВД всколыхнуло всю полицейскую общественность Петербурга. Занять этот крупный пост пригласили стороннего человека из Москвы. Но первая встреча с новым начальником заставила оперативников изумиться ещё больше прежнего. Оказывается, подполковник Маринец – это привлекательная молодая женщина! Впрочем, очень скоро новым подчинённым придётся на деле убедиться в том, что помимо выдающихся внешних данных, Александра Анатольевна обладает ещё и твёрдым характером, жёсткой хваткой и совсем не женским умом. Уже первые шаги Маринец на новом месте заставляют призадуматься многих, видевших в ней временную фигуру – уходить с любимой работы «ищейка» никуда не собирается...
Кинопоиск
SAMPLE
Дата премьеры в России: 6 июня 2015 (Первый Балтийский канал, Латвия)
Продолжительность:~ 00:42:00 серия
Качество видео: SATRip
Видео: AVC/H.264, 704x400, ~1700 kbps
Аудио: AC3, 2 ch, 192 kbps, CBR

Mediainfo:

Общее
Уникальный идентификатор                 : 219949783252893146801822345468952484592 (0xA578C991EBB1D237BC44A4EB4BB49AF0)
Полное имя                               : E:\Ищейка\01 серия.mkv
Формат                                   : Matroska
Версия формата                           : Version 2
Размер файла                             : 577 Мбайт
Продолжительность                        : 42 м.
Общий поток                              : 1894 Кбит/сек
Дата кодирования                         : UTC 2015-06-21 10:54:43
Программа кодирования                    : mkvmerge v7.8.0 ('River Man') 32bit built on Apr  3 2015 12:11:22
Библиотека кодирования                   : libebml v1.3.1 + libmatroska v1.4.2
Видео
Идентификатор                            : 1
Формат                                   : AVC
Формат/Информация                        : Advanced Video Codec
Профиль формата                          : [url=mailto:[email protected]][email protected][/url]
Параметр CABAC формата                   : Да
Параметр ReFrames формата                : 9 кадров
Идентификатор кодека                     : V_MPEG4/ISO/AVC
Продолжительность                        : 42 м.
Битрейт                                  : 1700 Кбит/сек
Ширина                                   : 704 пикселя
Высота                                   : 400 пикселей
Соотношение сторон                       : 16:9
Режим частоты кадров                     : Постоянный
Частота кадров                           : 25,000 кадров/сек
Цветовое пространство                    : YUV
Субдискретизация насыщенности            : 4:2:0
Битовая глубина                          : 8 бит
Тип развёртки                            : Прогрессивная
Бит/(Пиксели*Кадры)                      : 0.241
Размер потока                            : 507 Мбайт (88%)
Библиотека кодирования                   : x264 core 146 r2538 121396c
Настройки программы                      : cabac=1 / ref=9 / deblock=1:-3:-3 / analyse=0x3:0x113 / me=umh / subme=9 / psy=1 / psy_rd=1.00:0.00 / mixed_ref=1 / me_range=16 / chroma_me=1 / trellis=2 / 8x8dct=1 / cqm=0 / deadzone=21,11 / fast_pskip=1 / chroma_qp_offset=-2 / threads=4 / lookahead_threads=4 / sliced_threads=0 / nr=0 / decimate=0 / interlaced=0 / bluray_compat=0 / constrained_intra=0 / bframes=9 / b_pyramid=2 / b_adapt=1 / b_bias=0 / direct=3 / weightb=1 / open_gop=0 / weightp=2 / keyint=250 / keyint_min=25 / scenecut=40 / intra_refresh=0 / rc_lookahead=30 / rc=2pass / mbtree=1 / bitrate=1700 / ratetol=1.0 / qcomp=0.60 / qpmin=0 / qpmax=69 / qpstep=4 / cplxblur=20.0 / qblur=0.5 / vbv_maxrate=14000 / vbv_bufsize=14000 / nal_hrd=none / filler=0 / ip_ratio=1.40 / aq=1:1.00
Default                                  : Да
Forced                                   : Нет
Цветовой диапазон                        : Limited
Основные цвета                           : BT.601 PAL
Характеристики трансфера                 : BT.470 System B, BT.470 System G
Коэффициенты матрицы                     : BT.601
Аудио
Идентификатор                            : 2
Формат                                   : AC-3
Формат/Информация                        : Audio Coding 3
Расширение режима                        : CM (complete main)
Параметр Endianness формата              : Big
Идентификатор кодека                     : A_AC3
Продолжительность                        : 42 м.
Вид битрейта                             : Постоянный
Битрейт                                  : 192 Кбит/сек
Каналы                                   : 2 канала
Расположение каналов                     : Front: L R
Частота                                  : 48,0 КГц
Метод сжатия                             : С потерями
Размер потока                            : 58,5 Мбайт (10%)
Default                                  : Да
Forced                                   : Нет

Дополнительные скриншоты:

Скриншоты:
Яндекс.Метрика
Рейтинг@Mail.ru