Хоббит: Нежданное путешествие / The Hobbit: An Unexpected Journey [Extended Edition] (2012,Фэнтези, Приключения) BDRip-AVC

 

Создавать темы 13-Дек-2013 15:32

Хоббит: Нежданное путешествие / The Hobbit: An Unexpected Journey [Extended Edition] (2012) BDRip-AVC
Жанр: Фэнтези, Приключения
Год выхода: 2012
Режиссер: Питер Джексон /Peter Jackson/
В ролях: Мартин Фриман /Martin Freeman/, Иэн МакКеллен /Ian McKellen/, Ричард Армитидж /Richard Armitage/, Джеймс Несбитт /James Nesbitt/, Кен Стотт /Ken Stott/, Грэм МакТавиш /Graham McTavish/, Эйдан Тернер /Aidan Turner/, Дин О’Горман /Dean O'Gorman/, Джед Брофи /Jed Brophy/, Марк Хэдлоу /Mark Hadlow/, Кейт Бланшетт /Cate Blanchett/, Элайджа Вуд /Elijah Wood/ и др., ...
Описание: Фильм повествует о путешествии Бильбо Бэггинса, который пускается в грандиозный поход, целью которого является отвоевание утраченного королевства гномов Эребор у зловещего дракона Смауга. Совершенно неожиданно с хоббитом налаживает контакт волшебник Гэндальф Серый. Так Бильбо находит себя, присоединяясь к компании тринадцати гномов, возглавляемых легендарным воином, Торином Дубощитом. Их путешествие проляжет через Дикий Край, через предательские земли, населенные гоблинами и орками, смертоносными варгами и гигантскими пауками, народом, меняющим шкуры, и волшебниками.
И хотя их цель находится на Востоке среди пустошей Одинокой Горы, сначала им придется выбраться из туннелей гоблинов, где Бильбо встретит существо, которое изменит его жизнь навсегда... Голлума.
Здесь, один на один с Голлумом, на берегу подземного озера, непритязательный Бильбо Бэггинс обнаружит не только скрытые в глубине души хитрость и отвагу, которые удивят даже его, но и завладеет «прелестным» колечком Голлума, которое обладает нежданными и полезными свойствами... Простое золотое кольцо, c которым связана судьба всего Средиземья, нитями, о которых Бильбо не мог даже вообразить.

Продолжительность: 03:02:32
Перевод: Русский дублированный перевод + Оригинальная дорожка
Субтитры: Русские (полные, форсированные), Английские (полные, форсированные).
Информация о файле:
Качество: BDRip-AVC (Исходник: The Hobbit: An Unexpected Journey (2012) BDRemux 1080p от HELLYWOOD | Extended Cut | Лицензия)
Формат: MKV
Видео: MPEG-4 AVC, x264, 1128 x 470; 23.976 fps; 2530 kbps; 0.199 bit/pixel
Аудио #1: 48 kHz, AC3 Dolby Digital, 3/2 (L,C,R,l,r) + LFE ch, ~448.00 kbps avg
Аудио #2: 48 kHz, AC3 Dolby Digital, 3/2 (L,C,R,l,r) + LFE ch, ~448.00 kbps avg

Log

avs [info]: 1128x470p 1:1 @ 2997/125 fps (cfr)
x264 [warning]: --psnr used with psy on: results will be invalid!
x264 [warning]: --tune psnr should be used if attempting to benchmark psnr!
x264 [info]: using SAR=1/1
x264 [info]: using cpu capabilities: MMX2 SSE2Fast SSSE3 SSE4.2 AVX AVX2 FMA3 LZCNT BMI1 BMI2
x264 [info]: profile High, level 4.0
x264 [info]: frame I:2075 Avg QP:16.38 size: 81268 PSNR Mean Y:47.25 U:49.87 V:50.23 Avg:47.95 Global:46.84
x264 [info]: frame P:57588 Avg QP:19.87 size: 27857 PSNR Mean Y:44.70 U:48.18 V:48.50 Avg:45.55 Global:44.38
x264 [info]: frame B:202930 Avg QP:21.47 size: 8330 PSNR Mean Y:44.61 U:48.42 V:48.82 Avg:45.48 Global:44.06
x264 [info]: consecutive B-frames: 1.8% 2.3% 8.4% 28.1% 17.1% 31.5% 3.4% 2.6% 2.0% 0.3% 0.3% 0.9% 0.1% 0.2% 0.6% 0.3%
x264 [info]: mb I I16..4: 5.8% 75.1% 19.1%
x264 [info]: mb P I16..4: 0.7% 10.9% 1.6% P16..4: 30.1% 33.5% 14.4% 2.8% 0.4% skip: 5.5%
x264 [info]: mb B I16..4: 0.1% 1.3% 0.2% B16..8: 33.5% 19.9% 3.5% direct: 4.7% skip:36.8% L0:38.8% L1:45.6% BI:15.6%
x264 [info]: 8x8 transform intra:80.9% inter:60.5%
x264 [info]: direct mvs spatial:97.4% temporal:2.6%
x264 [info]: coded y,uvDC,uvAC intra: 88.2% 85.1% 60.0% inter: 23.8% 18.1% 7.5%
x264 [info]: i16 v,h,dc,p: 28% 10% 6% 56%
x264 [info]: i8 v,h,dc,ddl,ddr,vr,hd,vl,hu: 11% 6% 4% 10% 15% 14% 14% 12% 13%
x264 [info]: i4 v,h,dc,ddl,ddr,vr,hd,vl,hu: 16% 6% 4% 9% 15% 14% 13% 11% 12%
x264 [info]: i8c dc,h,v,p: 38% 22% 19% 21%
x264 [info]: Weighted P-Frames: Y:5.0% UV:2.4%
x264 [info]: ref P L0: 52.2% 11.1% 13.3% 6.0% 4.3% 3.3% 2.6% 1.6% 1.3% 1.1% 0.9% 0.8% 0.7% 0.6% 0.1% 0.0%
x264 [info]: ref B L0: 80.4% 9.6% 3.9% 1.8% 1.2% 0.9% 0.7% 0.4% 0.3% 0.3% 0.2% 0.2% 0.1%
x264 [info]: ref B L1: 94.1% 5.9%
x264 [info]: SSIM Mean Y:0.9793689 (16.855db)
x264 [info]: PSNR Mean Y:44.651 U:48.380 V:48.760 Avg:45.516 Global:44.149 kb/s:2529.71

MediaInfo

Format : Matroska
Format version : Version 4 / Version 2
File size : 4.37 GiB
Duration : 3h 2mn
Overall bit rate : 3 428 Kbps
Encoded date : UTC 2013-12-13 10:41:43
Writing application : mkvmerge v6.1.0 ('Old Devil') built on Mar 4 2013 09:10:42
Writing library : libebml v1.3.0 + libmatroska v1.4.0
Video
ID : 1
Format : AVC
Format/Info : Advanced Video Codec
Format profile : [email protected]
Format settings, CABAC : Yes
Format settings, ReFrames : 14 frames
Codec ID : V_MPEG4/ISO/AVC
Duration : 3h 2mn
Bit rate : 2 530 Kbps
Width : 1 128 pixels
Height : 470 pixels
Display aspect ratio : 2.40:1
Frame rate : 23.976 fps
Color space : YUV
Chroma subsampling : 4:2:0
Bit depth : 8 bits
Scan type : Progressive
Bits/(Pixel*Frame) : 0.199
Stream size : 3.14 GiB (72%)
Title : Hobbit.Nezhdannoe.Puteshestvie.2012.Extended.Cut.DUAL.BDRip-AVC.AC3.-HQ-ViDEO
Writing library : x264 core 130 r2273 b3065e6
Encoding settings : cabac=1 / ref=14 / deblock=1:-3:-2 / analyse=0x3:0x133 / me=umh / subme=11 / psy=1 / psy_rd=1.00:0.00 / mixed_ref=1 / me_range=32 / chroma_me=1 / trellis=2 / 8x8dct=1 / cqm=0 / deadzone=21,11 / fast_pskip=0 / chroma_qp_offset=-2 / threads=6 / lookahead_threads=1 / sliced_threads=0 / nr=0 / decimate=0 / interlaced=0 / bluray_compat=0 / constrained_intra=0 / bframes=15 / b_pyramid=2 / b_adapt=2 / b_bias=0 / direct=3 / weightb=1 / open_gop=0 / weightp=2 / keyint=240 / keyint_min=23 / scenecut=40 / intra_refresh=0 / rc_lookahead=60 / rc=2pass / mbtree=0 / bitrate=2530 / ratetol=1.0 / qcomp=0.60 / qpmin=0 / qpmax=69 / qpstep=4 / cplxblur=20.0 / qblur=0.5 / vbv_maxrate=20000 / vbv_bufsize=25000 / nal_hrd=none / ip_ratio=1.35 / pb_ratio=1.25 / aq=2:1.00
Language : Russian
Default : Yes
Forced : No
Color primaries : BT.709-5, BT.1361, IEC 61966-2-4, SMPTE RP177
Transfer characteristics : BT.709-5, BT.1361
Audio #1
ID : 2
Format : AC-3
Format/Info : Audio Coding 3
Mode extension : CM (complete main)
Codec ID : A_AC3
Duration : 3h 2mn
Bit rate mode : Constant
Bit rate : 448 Kbps
Channel(s) : 6 channels
Channel positions : Front: L C R, Side: L R, LFE
Sampling rate : 48.0 KHz
Bit depth : 16 bits
Compression mode : Lossy
Stream size : 585 MiB (13%)
Title : Dub (CEE)
Language : Russian
Default : Yes
Forced : No
Audio #2
ID : 3
Format : AC-3
Format/Info : Audio Coding 3
Mode extension : CM (complete main)
Codec ID : A_AC3
Duration : 3h 2mn
Bit rate mode : Constant
Bit rate : 448 Kbps
Channel(s) : 6 channels
Channel positions : Front: L C R, Side: L R, LFE
Sampling rate : 48.0 KHz
Bit depth : 16 bits
Compression mode : Lossy
Stream size : 585 MiB (13%)
Title : Original (English)
Language : English
Default : No
Forced : No
Text #1
ID : 4
Format : UTF-8
Codec ID : S_TEXT/UTF8
Codec ID/Info : UTF-8 Plain Text
Title : Russian (for)
Language : Russian
Default : Yes
Forced : Yes
Text #2
ID : 5
Format : UTF-8
Codec ID : S_TEXT/UTF8
Codec ID/Info : UTF-8 Plain Text
Title : Russian (full)
Language : Russian
Default : No
Forced : No
Text #3
ID : 6
Format : UTF-8
Codec ID : S_TEXT/UTF8
Codec ID/Info : UTF-8 Plain Text
Title : English (for)
Language : English
Default : No
Forced : No
Text #4
ID : 7
Format : UTF-8
Codec ID : S_TEXT/UTF8
Codec ID/Info : UTF-8 Plain Text
Title : English (full)
Language : English
Default : No
Forced : No

Скриншоты

ПРИЯТНОГО ПРОСМОТРА!
Яндекс.Метрика
Рейтинг@Mail.ru