Viasat History: Женщины-самураи / Samurai Warrior Queens

 

Создавать темы 29-Июл-2015 05:32

Viasat History: Женщины-самураи / Samurai Warrior Queens
Год выпуска: 2015
Страна: Великобритания, Urban Canyons Ltd
Жанр: Документальный, история, реконструкция
Продолжительность: 00:42:38
Перевод: Профессиональный (одноголосый)
Режисер: Jon Wate
Описание: Во всех историях, которые нам известны о самураях, упоминаются лишь мужчины, однако на протяжении 8 веков женщины сражались бок о бок с мужчинами. Результаты научных исследований, которые проводились в местах сражений в Японии, показывают, что 30% найденных останков воинов принадлежат женщинам, что доказывает существование женщин-самураев, о посвящении которых мало что известно миру. Британские и японские ученые, а также представительницы современных боевых искусств расскажут удивительную историю о храбрых и воинственных женщинах, которые по своим навыкам не уступали мужчинам.
Доп.информация: "SDI Media" перевод Геннадия Максимова, текст читает Роман Антанович
Качество: SATRip
Контейнер: AVI
Видео кодек: XviD
Аудио кодек: AC3
Видео: 704x400 25fps 1800kbps
Аудио: AC3, 2 ch, 192kbps

MediaInfo

Format : AVI
Format/Info : Audio Video Interleave
File size : 747 MiB
Duration : 49mn 47s
Overall bit rate : 2 097 Kbps
Writing application : TMPGEnc Video Mastering Works 5 Version. 5.0.6.38
Writing library : TMPGEnc Video Mastering Works 5 Version. 5.0.6.38
Video
ID : 0
Format : MPEG-4 Visual
Format profile : Advanced [email protected]
Format settings, BVOP : 2
Format settings, QPel : No
Format settings, GMC : No warppoints
Format settings, Matrix : Default (H.263)
Muxing mode : Packed bitstream
Codec ID : XVID
Codec ID/Hint : XviD
Duration : 49mn 47s
Bit rate : 1 897 Kbps
Width : 704 pixels
Height : 400 pixels
Display aspect ratio : 16:9
Frame rate : 25.000 fps
Color space : YUV
Chroma subsampling : 4:2:0
Bit depth : 8 bits
Scan type : Progressive
Compression mode : Lossy
Bits/(Pixel*Frame) : 0.269
Stream size : 676 MiB (90%)
Writing library : XviD 73
Audio
ID : 1
Format : AC-3
Format/Info : Audio Coding 3
Mode extension : CM (complete main)
Format settings, Endianness : Big
Codec ID : 2000
Duration : 49mn 47s
Bit rate mode : Constant
Bit rate : 192 Kbps
Channel(s) : 2 channels
Channel positions : Front: L R
Sampling rate : 48.0 KHz
Compression mode : Lossy
Stream size : 68.4 MiB (9%)
Alignment : Aligned on interleaves
Interleave, duration : 240 ms (6.00 video frames)
Interleave, preload duration : 224 ms
-Благодарность за предоставленный рип:
Яндекс.Метрика
Рейтинг@Mail.ru