Большой белый обман / The Great White Hype (Реджинальд Хадлин / Reginald Hudlin) [1996, США, комедия, HDTV 1080i] MVOx2 + Eng + Sub Eng

 

Создавать темы 28-Июл-2015 23:07

Большой белый обман / The Great White Hype
Страна: США
Жанр: комедия
Год выпуска: 1996
Продолжительность: 01:26:54
Перевод: Профессиональный (многоголосый закадровый) 1 канал
Перевод: Профессиональный (многоголосый закадровый) Премьер Фильм
Cубтитры: английские
Оригинальная аудиодорожка: английская
Режиссер: Реджинальд Хадлин / Reginald Hudlin
В ролях: Сэмюэл Л. Джексон, Джефф Голдблюм, Питер Берг, Корбин Бернсен, Джон Ловиц, Чич Марин, Джон Рис-Дэвис, Салли Ричардсон, Джейми Фокс, Роки Кэрролл, Альберт Холл, Сьюзэн Гибни, Майкл Джейс, Дуан Дэвис, Ламонт Джонсон, Дэймон Уайанс, Сэм Уиппл, Лиделл М. Чешир, Стью Нэхен, Ферди Пачеко, Аль Родриго, Фил Букман, Рени Гриффин, Берт Рэндольф Шуга, Уолтер Эддисон, Джонатан П. Хикс, Крэйг Моддерно, Тим Саки, Майкл Фэйрмэн, Брэд Блэйсделл, Джеймс Харди, Недра Волц, Рик Скарри, Элизабет ЛаРоу, Элисон Крофт, Кристал Л. Хаус, Ричард Стил, Энтони Джонсон, Брайан Сетцер, Метод Мэн, Ирв Доттен, Дизер Ди, Рено
Описание: Бокс - это всегда больше, чем просто спорт, чаще это бизнес и тотализатор. И Фред Салтан – менеджер чемпиона среди тяжеловесов - не новичок в этой игре. По его мнению все средства хороши, чтобы озолотиться. А значит, его подопечному - чемпиону Джеймсу Роперу недостаточно заполучить достойного соперника, ему необходим скандал. Фреду нужен Тэри Конклин - "белый" боксер, некогда одержавший громкую победу над Ропером. Правда, он давно отошел от большого спорта. Что ж, тем ярче будет победа. Но в этот раз безупречное чутье Салтана дало осечку: все с самого начала пошло не так...
Доп. информация: Запись с канала Первый HD. Из видеоряда удалены послерекламные вставки с названием фильма. Видеоряд короче звукового за счет урезанных титров. HDTV имеет немного большее наполнение кадра, чем DVD:

Сравнение

DVD................................HDTV
Сэмпл: http://multi-up.com/1060471
Тип релиза: HDTV 1080i
Контейнер: mkv
Видео: AVC, 1920x1080 (16/9), 25.000 fps, 14.3 Mbps (0.276 bit/pixel)
Аудио: AC-3, 48.0 KHz, 2 ch, 192 Kbps, CBR (Russian) - 1 канал
Аудио: AC-3, 48.0 KHz, 2 ch, 128 Kbps, CBR (Russian) - Премьер Фильм
Аудио: AC-3, 48.0 KHz, 2 ch, 192 Kbps, CBR (English)

MediaInfo

Общее
Уникальный идентификатор : 230353933528257894132770950253071497480 (0xAD4C8DC8639FC8CFB238C4DFC922F908)
Полное имя : K:\Большой белый обман.mkv
Формат : Matroska
Версия формата : Version 2
Размер файла : 9,15 Гбайт
Продолжительность : 1 ч. 26 м.
Общий поток : 15,1 Мбит/сек
Дата кодирования : UTC 2015-07-28 20:44:13
Программа кодирования : mkvmerge v8.2.0 ('World of Adventure') 64bit
Библиотека кодирования : libebml v1.3.1 + libmatroska v1.4.2
Видео
Идентификатор : 1
Формат : AVC
Формат/Информация : Advanced Video Codec
Профиль формата : [email protected]
Параметр CABAC формата : Да
Параметр ReFrames формата : 3 кадра
Идентификатор кодека : V_MPEG4/ISO/AVC
Битрейт : 14,3 Мбит/сек
Ширина : 1920 пикселей
Высота : 1080 пикселей
Соотношение сторон : 16:9
Режим частоты кадров : Переменный
Частота кадров в оригинале : 25,000 кадров/сек
Стандарт вещания : Component
Цветовое пространство : YUV
Субдискретизация насыщенности : 4:2:0
Битовая глубина : 8 бит
Тип развёртки : Чересстрочная
Порядок развёртки : Верхнее поле первое
Заголовок : Большой белый обман / Great White Hype, The (1996)
Язык : English
Default : Да
Forced : Нет
Цветовой диапазон : Limited
Основные цвета : BT.709
Характеристики трансфера : BT.709
Коэффициенты матрицы : BT.709
Аудио #1
Идентификатор : 2
Формат : AC-3
Формат/Информация : Audio Coding 3
Расширение режима : CM (complete main)
Параметр Endianness формата : Big
Идентификатор кодека : A_AC3
Продолжительность : 1 ч. 26 м.
Вид битрейта : Постоянный
Битрейт : 192 Кбит/сек
Каналы : 2 канала
Расположение каналов : Front: L R
Частота : 48,0 КГц
Метод сжатия : С потерями
Задержка видео : -22 мс.
Размер потока : 119 Мбайт (1%)
Заголовок : Профессиональный (многоголосый закадровый) 1 канал
Язык : Russian
Default : Да
Forced : Нет
Аудио #2
Идентификатор : 3
Формат : AC-3
Формат/Информация : Audio Coding 3
Расширение режима : CM (complete main)
Параметр Endianness формата : Big
Идентификатор кодека : A_AC3
Продолжительность : 1 ч. 26 м.
Вид битрейта : Постоянный
Битрейт : 128 Кбит/сек
Каналы : 2 канала
Расположение каналов : Front: L R
Частота : 48,0 КГц
Метод сжатия : С потерями
Задержка видео : -22 мс.
Размер потока : 79,6 Мбайт (1%)
Заголовок : Профессиональный (многоголосый закадровый) Премьер Фильм
Язык : Russian
Default : Нет
Forced : Нет
Аудио #3
Идентификатор : 4
Формат : AC-3
Формат/Информация : Audio Coding 3
Расширение режима : CM (complete main)
Параметр Endianness формата : Big
Идентификатор кодека : A_AC3
Продолжительность : 1 ч. 26 м.
Вид битрейта : Постоянный
Битрейт : 192 Кбит/сек
Каналы : 2 канала
Расположение каналов : Front: L R
Частота : 48,0 КГц
Метод сжатия : С потерями
Задержка видео : -22 мс.
Размер потока : 119 Мбайт (1%)
Язык : English
Default : Нет
Forced : Нет
Текст
Идентификатор : 5
Формат : UTF-8
Идентификатор кодека : S_TEXT/UTF8
Идентификатор кодека/Информация : UTF-8 Plain Text
Язык : English
Default : Да
Forced : Нет

Скриншоты

Торрент перезалит 28.07.15 - из видеоряда удалены послерекламные вставки с названием фильма, добавлены дорожки с озвучкой Премьер Фильм и английская, английские субтитры, перепакован в mkv.
Яндекс.Метрика
Рейтинг@Mail.ru