33 квадратных метра [сезон 5, серий 30] (Виталий Бабенко, Константин Наумочкин, Петр Штейн, ...) [2004 г., комедия, TVRip]

 

Создавать темы 28-Июл-2015 06:38

--33 квадратных метра-- Год выпуска: 2004
Страна: Россия
Жанр: комедия
Продолжительность: серия ~ 26 мин.-Режиссер: Виталий Бабенко, Константин Наумочкин, Петр Штейн, ...
Сценарий: Александр Толоконников, Василий Антонов, Александр Бачило, ...-В ролях: Михаил Шац, Сергей Белоголовцев, Татьяна Лазарева, Павел Кабанов, Андрей Бочаров, Сергей Сивохо, Александр Толоконников, Василий Антонов, Олег Комаров, Маргарита Митрофанова...-Описание: Cериал о типичной российской семье Звездуновых: об инженере Сергее, мечтающем о смерти тёщи, о его жене Татьяне, чей брак — сплошная катастрофа, об их странноватом сыне Андрюше и о дворянке-коммунистке бабушке Кларе Захаровне.-Качество: TVRip
Формат: AVI
Видеокодек: XviD
Аудиокодек: MP3
Видео: 640x480 (1.33:1), 25.002 fps, XviD 1.1 beta 2 (build 39) ~997 kbps avg, 0.13 bit/pixel
Аудио: 32 kHz, MPEG Layer 3, 1 ch, ~48.00 kbps avg
--Список серий:
1. «Акула пера»
2. «Амнезия»
3. «Любовь нечаяно нагрянет»
4. «Клуб „Какаду“»
5. «Знакомство с родителями»
6. «Ложный вызов»
7. «Генеральная угроза»
8. «В тихом омуте»
9. «Гены не врут»
10. «Андрейкин бизнес»
11. «Хочешь похудеть, спроси»
12. «Опиум для народа»
13. «Бедный сантехник»
14. «Подруга молодости»
15. «Самофинанисирование»
16. «Московский пленник»
17. «Индиана Ганс»
18. «Мешок»
19. «Музыкальный ринг»
20. «Выборы управдома»
21. «Волшебная сила искусства»
22. «Вешалка начинается с театра»
23. «Аты-баты, шли в солдаты»
24. «Подопытная свинка»
25. «Страусиное яйцо»
26. «Привет, я ваша тетка!»
27. «Уходя-уходи»
28. «Заморские гости»
29. «Зигзаг удачи»
30. «Вперёд, Россия!»-

Доп. информация:

Доступны 30 серий. Подросший Андрюша поступает в техникум (здесь сериал перекликается со своим ответвлением Вне родных квадратных метров), пытается овладеть новой профессией, занимается бизнесом и ходит по ночным клубам, а у Сергея Геннадьевича неожиданно появляется дочь Света (Анна Цуканова).
-

МедиаИнфо


Общее
Полное имя : D:\Торренты\33_kvadratnyh_metra\5_season_(2004)\1.avi
Формат : AVI
Формат/Информация : Audio Video Interleave
Размер файла : 169 Мбайт
Продолжительность : 22 м.
Общий поток : 1055 Кбит/сек
Библиотека кодирования : VirtualDub build 24442/release
Видео
Идентификатор : 0
Формат : MPEG-4 Visual
Профиль формата : Advanced [email protected]
Параметр BVOP формата : 2
Параметр QPel формата : Нет
Параметр GMC формата : Без точки перехода
Параметр матрицы формата : Default (H.263)
Идентификатор кодека : DIVX
Идентификатор кодека/Информация : Project Mayo
Идентификатор кодека/Подсказка : DivX 4
Продолжительность : 22 м.
Битрейт : 997 Кбит/сек
Ширина : 640 пикселей
Высота : 480 пикселей
Соотношение сторон : 4:3
Частота кадров : 25,000 кадров/сек
Цветовое пространство : YUV
Субдискретизация насыщенности : 4:2:0
Битовая глубина : 8 бит
Тип развёртки : Прогрессивная
Метод сжатия : С потерями
Бит/(Пиксели*Кадры) : 0.130
Размер потока : 160 Мбайт (95%)
Библиотека кодирования : XviD 1.1.0 Beta2 (UTC 2005-04-04)
Аудио
Идентификатор : 1
Формат : MPEG Audio
Версия формата : Version 1
Профиль формата : Layer 3
Идентификатор кодека : 55
Идентификатор кодека/Подсказка : MP3
Продолжительность : 22 м.
Вид битрейта : Постоянный
Битрейт : 48,0 Кбит/сек
Каналы : 1 канал
Частота : 32,0 КГц
Метод сжатия : С потерями
Размер потока : 7,71 Мбайт (5%)
Выравнивание : Разделение по промежуткам
Продолжительность промежутка : 40 мс. (1,00 видеокадр)
Время предзагрузки промежутка : 500 мс.
-Скриншоты:
-
Яндекс.Метрика
Рейтинг@Mail.ru