33 квадратных метра [сезон 4, серий 7] (Виталий Бабенко, Константин Наумочкин, Петр Штейн, ...) [2003 г., комедия, TVRip]

 

Создавать темы 28-Июл-2015 06:36

--33 квадратных метра-- Год выпуска: 2003
Страна: Россия
Жанр: комедия
Продолжительность: серия ~ 26 мин.-Режиссер: Виталий Бабенко, Константин Наумочкин, Петр Штейн, ...
Сценарий: Александр Толоконников, Василий Антонов, Александр Бачило, ...-В ролях: Михаил Шац, Сергей Белоголовцев, Татьяна Лазарева, Павел Кабанов, Андрей Бочаров, Сергей Сивохо, Александр Толоконников, Василий Антонов, Олег Комаров, Маргарита Митрофанова...-Описание: Cериал о типичной российской семье Звездуновых: об инженере Сергее, мечтающем о смерти тёщи, о его жене Татьяне, чей брак — сплошная катастрофа, об их странноватом сыне Андрюше и о дворянке-коммунистке бабушке Кларе Захаровне.-Качество: TVRip
Формат: AVI
Видеокодек: DivX
Аудиокодек: AC3
Видео: 704x444 (1.59:1), 25 fps, DivX Codec 5.2.1 build 1338 ~2199 kbps avg, 0.28 bit/pixel
Аудио: 48 kHz, AC3 Dolby Digital, 2/0 (L,R) ch, ~192 kbps
--Список серий:
1. «Возвращение бармалея»
2. «Почтальон стучит дважды»
3. «Приподнятая целина»
4. «Женитьба Николая»
5. «Хождение по лесу»
6. «Пиковая бабка»
7. «Трудоустройство»-

Доп. информация:

И опять всё действие проходит на даче… Доступны 7 серий. Неожиданно к семье Звездуновых приезжает двоюродный брат Сергея Геннадьевича Николай (Олег Комаров), уволившийся из армии, и тут начинается такое…
-

МедиаИнфо


Общее
Полное имя : D:\Торренты\33_kvadratnyh_metra\4_season_(2003)\1.avi
Формат : AVI
Формат/Информация : Audio Video Interleave
Размер файла : 371 Мбайт
Продолжительность : 21 м.
Общий поток : 2402 Кбит/сек
Библиотека кодирования : VirtualDub-MPEG2 build 24600/release
Видео
Идентификатор : 0
Формат : MPEG-4 Visual
Параметр BVOP формата : 1
Параметр QPel формата : Нет
Параметр GMC формата : Без точки перехода
Параметр матрицы формата : Default (H.263)
Режим смешивания : Сжатый битовый поток
Идентификатор кодека : DX50
Идентификатор кодека/Подсказка : DivX 5
Продолжительность : 21 м.
Битрейт : 2200 Кбит/сек
Ширина : 704 пикселя
Высота : 444 пикселя
Соотношение сторон : 16:10
Частота кадров : 25,000 кадров/сек
Цветовое пространство : YUV
Субдискретизация насыщенности : 4:2:0
Битовая глубина : 8 бит
Тип развёртки : Прогрессивная
Метод сжатия : С потерями
Бит/(Пиксели*Кадры) : 0.282
Размер потока : 340 Мбайт (92%)
Библиотека кодирования : DivX 5.2.1 (DrDivX 106) (UTC 2004-09-08)
Аудио
Идентификатор : 1
Формат : AC-3
Формат/Информация : Audio Coding 3
Расширение режима : CM (complete main)
Параметр Endianness формата : Big
Идентификатор кодека : 2000
Продолжительность : 21 м.
Вид битрейта : Постоянный
Битрейт : 192 Кбит/сек
Каналы : 2 канала
Расположение каналов : Front: L R
Частота : 48,0 КГц
Метод сжатия : С потерями
Размер потока : 29,7 Мбайт (8%)
Выравнивание : Соединение по промежуткам
Продолжительность промежутка : 40 мс. (1,00 видеокадр)
Время предзагрузки промежутка : 512 мс.
-Скриншоты:
-
Яндекс.Метрика
Рейтинг@Mail.ru