33 квадратных метра [сезон 3, серий 13, часть 2] (Виталий Бабенко, Константин Наумочкин, Петр Штейн, ...) [1999-2000 г., комедия, TVRip]

 

Создавать темы 28-Июл-2015 06:34

--33 квадратных метра-- Год выпуска: 1999-2000
Страна: Россия
Жанр: комедия
Продолжительность: серия ~ 26 мин.-Режиссер: Виталий Бабенко, Константин Наумочкин, Петр Штейн, ...
Сценарий: Александр Толоконников, Василий Антонов, Александр Бачило, ...-В ролях: Михаил Шац, Сергей Белоголовцев, Татьяна Лазарева, Павел Кабанов, Андрей Бочаров, Сергей Сивохо, Александр Толоконников, Василий Антонов, Олег Комаров, Маргарита Митрофанова...-Описание: Cериал о типичной российской семье Звездуновых: об инженере Сергее, мечтающем о смерти тёщи, о его жене Татьяне, чей брак — сплошная катастрофа, об их странноватом сыне Андрюше и о дворянке-коммунистке бабушке Кларе Захаровне.-Качество: TVRip
Формат: AVI
Видеокодек: DivX
Аудиокодек: AC3
Видео: 704x528 (1.33:1), 25 fps, DivX Codec 5.2.1 build 1338 ~2201 kbps avg, 0.24 bit/pixel
Аудио: 48 kHz, AC3 Dolby Digital, 2/0 (L,R) ch, ~192 kbps
--Список серий 2 части:
14. «Секунданты решают все»
15. «Маньяк у обочины»
16. «Гамлет, принц дачный»
17. «Курортный роман»
18. «Рыболов-спортсмен»
19. «Родная кровь»
20. «Рэкет»
21. «Купите дедушку»
22. «Джентльмены у дачи»
23. «Репетитор»
24. «Психоаналитик», 1-я часть
25. «Психоаналитик», 2-я часть
26. «Новогодняя елка Звездуновых»-

Доп. информация:

Этот сезон проходит в городе, в двухкомнатной квартире (33 квадратных метра), а также на даче, причём антураж дачи совсем другой, нежели в предыдущем сезоне. Всего вышло 26 серий этого сезона. В последней серии сезона (это специальный новогодний выпуск) появляются звёзды, которые играют самих себя: Владимир Жириновский, группа Стрелки, Иван Усачёв и Отар Кушанашвили.
-

МедиаИнфо


Общее
Полное имя : D:\Торренты\33_kvadratnyh_metra\3_season_(1999-2000) 2 часть\13.avi
Формат : AVI
Формат/Информация : Audio Video Interleave
Размер файла : 449 Мбайт
Продолжительность : 26 м.
Общий поток : 2403 Кбит/сек
Библиотека кодирования : VirtualDub-MPEG2 build 24600/release
Видео
Идентификатор : 0
Формат : MPEG-4 Visual
Параметр BVOP формата : 1
Параметр QPel формата : Нет
Параметр GMC формата : Без точки перехода
Параметр матрицы формата : Default (H.263)
Режим смешивания : Сжатый битовый поток
Идентификатор кодека : DX50
Идентификатор кодека/Подсказка : DivX 5
Продолжительность : 26 м.
Битрейт : 2201 Кбит/сек
Ширина : 704 пикселя
Высота : 528 пикселей
Соотношение сторон : 4:3
Частота кадров : 25,000 кадров/сек
Цветовое пространство : YUV
Субдискретизация насыщенности : 4:2:0
Битовая глубина : 8 бит
Тип развёртки : Прогрессивная
Метод сжатия : С потерями
Бит/(Пиксели*Кадры) : 0.237
Размер потока : 411 Мбайт (92%)
Библиотека кодирования : DivX 5.2.1 (DrDivX 106) (UTC 2004-09-08)
Аудио
Идентификатор : 1
Формат : AC-3
Формат/Информация : Audio Coding 3
Расширение режима : CM (complete main)
Параметр Endianness формата : Big
Идентификатор кодека : 2000
Продолжительность : 26 м.
Вид битрейта : Постоянный
Битрейт : 192 Кбит/сек
Каналы : 2 канала
Расположение каналов : Front: L R
Частота : 48,0 КГц
Метод сжатия : С потерями
Размер потока : 35,9 Мбайт (8%)
Выравнивание : Соединение по промежуткам
Продолжительность промежутка : 40 мс. (1,00 видеокадр)
Время предзагрузки промежутка : 512 мс.
-Скриншоты:
-
Яндекс.Метрика
Рейтинг@Mail.ru