Форрест Гамп / Forrest Gump (1994) BDRip [H.264/1080p]

 

Создавать темы 24-Июл-2015 23:14

-Форрест Гамп / Forrest Gump (1994) BDRip [H.264/1080p]«Мир уже никогда не будет прежним, после того как вы увидите его глазами Форреста Гампа»- Производство: США / Paramount Pictures
Жанр: драма, мелодрама
Режиссер: Роберт Земекис
Продюсер: Венди Файнерман, Стив Старки, Стив Тиш
Актеры: Том Хэнкс, Робин Райт, Гэри Синиз, Майкелти Уильямсон, Салли Филд, Ребекка Уильямс, Майкл Коннер Хэмпфри, Хэйли Джоэл Осмент, Харольд Дж. Хертэм, Джордж Келли
Описание:
Форрест – не совсем обычный мальчик: он не очень хорошо соображает, зато обладает большим сердцем и врожденным благородством. Издевательства со стороны сверстников научили Форреста быстро бегать, и эта способность неожиданно становится для Гампа билетом в жизнь: теперь он играет в футбольной команде, и за него болеют окружающие. Закончив школу, Форрест отправляется на службу в армию США и попадает во Вьетнам, после чего становится национальным героем.
Жизнь Форреста, не вполне понимающего, почему прославился, вдохновляет целое поколение американцев, но сам он не становится ни тщеславным, ни черствым. Всю жизнь Форрест хотел быть вместе со своей подругой детства Дженни, мечтавшей вырваться из родного провинциального городка и начать новую жизнь, но Дженни, хватавшаяся за каждую возможность стать знаменитой и успешной, все время ускользала от него. По одиночке и вместе они переживают множество приключений, и в конце концов обретают то, на что даже не надеялись...
[img]https://www.kinopoisk.ru/rating/448.gif[/img]
Рейтинг MPAA: PG-13 - Детям до 13 лет просмотр не желателен
Релиз группа: HDClub
Продолжительность: 02:22:09
Качество: BDRip (1080p) (NTb)
Перевод: профессиональный (полное дублирование), профессиональный (многоголосый закадровый), авторский (одноголосый закадровый)
Язык субтитров: русский, английский
Вид субтитров: вшитые, отключаемые
Видео: MPEG-4 AVC/H.264, 1920x816 (2,35:1), 17 600 kbps, 23.976 fps, 0.467 b/px
Аудио # 1: АС3, 6 ch, 448 kbps, 48 000 Hz - MVO - «FDV / Киномания»
Аудио # 2: DTS, 6 ch, 1509 kbps, 48 000 Hz - MVO - «Позитив-Мультимедиа»
Аудио # 3: DTS, 6 ch, 1509 kbps, 48 000 Hz - MVO - «Медиа-Комплекс»
Аудио # 4: АС3, 6 ch, 448 kbps, 48 000 Hz - MVO - «НТВ+»
Аудио # 5: АС3, 2 ch, 192 kbps, 48 000 Hz - MVO - «СТС / РТР»
Аудио # 6: АС3, 2 ch, 128 kbps, 48 000 Hz - MVO - «Премьер Видео Фильм»
Аудио # 7: DTS, 6 ch, 1509 kbps, 48 000 Hz - AVO - А.Гаврилов
Аудио # 8: DTS, 6 ch, 1509 kbps, 48 000 Hz - AVO - Ю.Сербин
Аудио # 9: АС3, 2 ch, 192 kbps, 48 000 Hz - MVO - «IНТЕР» - Украинский
Аудио # 10: DTS, 6 ch, 1509 kbps, 48 000 Hz - Original - English
Аудио # 11: АС3, 2 ch, 192 kbps, 48 000 Hz - Комментарии Тома Хэнкса - Русский
Аудио # 12: АС3, 2 ch, 192 kbps, 48 000 Hz - Комментарии продюсера Венди Файнерман - Русский
Аудио # 13: АС3, 2 ch, 224 kbps, 48 000 Hz - Commentary by Tom Hanks - English
Аудио # 14: АС3, 2 ch, 224 kbps, 48 000 Hz - Commentary by producer Wendy Faynerman - English

MediaInfo

Общее
Уникальный идентификатор                 : 245114717606452494632057616921403593129 (0xB86760A0396BC5A2AA66933870F011A9)
Полное имя                               : F:\[1994] Форрест Гамп [BDRip] [1080p].mkv
Формат                                   : Matroska
Версия формата                           : Version 4 / Version 2
Размер файла                             : 27,7 Гбайт
Продолжительность                        : 2 ч. 22 м.
Общий поток                              : 27,9 Мбит/сек
Название фильма                          : Форрест Гамп / Forrest Gump (1994) BDRip [1080p]
Дата кодирования                         : UTC 2015-07-24 20:07:03
Программа кодирования                    : mkvmerge v7.8.0 ("River Man") 32bit built on Mar 27 2015 16:18:02
Библиотека кодирования                   : libebml v1.3.1 + libmatroska v1.4.2
DURATION                                 : 02:15:50.075000000
NUMBER_OF_FRAMES                         : 712
NUMBER_OF_BYTES                          : 62995
_STATISTICS_WRITING_APP                  : mkvmerge v7.8.0 ("River Man") 32bit built on Mar 27 2015 16:18:02
_STATISTICS_WRITING_DATE_UTC             : 2015-07-24 20:07:03
_STATISTICS_TAGS                         : BPS DURATION NUMBER_OF_FRAMES NUMBER_OF_BYTES
Видео
Идентификатор                            : 1
Формат                                   : AVC
Формат/Информация                        : Advanced Video Codec
Профиль формата                          : [url=mailto:[email protected]][email protected][/url]
Параметр CABAC формата                   : Да
Параметр ReFrames формата                : 5 кадров
Идентификатор кодека                     : V_MPEG4/ISO/AVC
Продолжительность                        : 2 ч. 22 м.
Битрейт                                  : 17,5 Мбит/сек
Ширина                                   : 1920 пикселей
Высота                                   : 816 пикселей
Соотношение сторон                       : 2,35:1
Режим частоты кадров                     : Постоянный
Частота кадров                           : 23,976 кадра/сек
Цветовое пространство                    : YUV
Субдискретизация насыщенности            : 4:2:0
Битовая глубина                          : 8 бит
Тип развёртки                            : Прогрессивная
Бит/(Пиксели*Кадры)                      : 0.467
Размер потока                            : 17,4 Гбайт (63%)
Заголовок                                : [1994] Форрест Гамп / Forrest Gump [BDRip] [1080p]
Библиотека кодирования                   : x264 core 142 r2431 ac76440
Настройки программы                      : cabac=1 / ref=5 / deblock=1:-3:-3 / analyse=0x3:0x133 / me=umh / subme=10 / psy=1 / psy_rd=1.05:0.00 / mixed_ref=1 / me_range=48 / chroma_me=1 / trellis=2 / 8x8dct=1 / cqm=0 / deadzone=21,11 / fast_pskip=1 / chroma_qp_offset=-2 / threads=4 / lookahead_threads=1 / sliced_threads=0 / nr=0 / decimate=1 / interlaced=0 / bluray_compat=0 / constrained_intra=0 / bframes=8 / b_pyramid=2 / b_adapt=2 / b_bias=0 / direct=3 / weightb=1 / open_gop=0 / weightp=2 / keyint=250 / keyint_min=23 / scenecut=40 / intra_refresh=0 / rc_lookahead=150 / rc=crf / mbtree=0 / crf=17.8 / qcomp=0.65 / qpmin=0 / qpmax=69 / qpstep=4 / vbv_maxrate=50000 / vbv_bufsize=62500 / crf_max=0.0 / nal_hrd=none / filler=0 / ip_ratio=1.10 / pb_ratio=1.10 / aq=1:0.80
Язык                                     : English
Default                                  : Да
Forced                                   : Нет
DURATION                                 : 02:22:09.396000000
NUMBER_OF_FRAMES                         : 204501
NUMBER_OF_BYTES                          : 19293804944
_STATISTICS_WRITING_APP                  : mkvmerge v7.8.0 ("River Man") 32bit built on Mar 27 2015 16:18:02
_STATISTICS_WRITING_DATE_UTC             : 2015-07-24 20:07:03
_STATISTICS_TAGS                         : BPS DURATION NUMBER_OF_FRAMES NUMBER_OF_BYTES
Аудио #1
Идентификатор                            : 2
Формат                                   : AC-3
Формат/Информация                        : Audio Coding 3
Расширение режима                        : CM (complete main)
Параметр Endianness формата              : Big
Идентификатор кодека                     : A_AC3
Продолжительность                        : 2 ч. 22 м.
Вид битрейта                             : Постоянный
Битрейт                                  : 448 Кбит/сек
Каналы                                   : 6 каналов
Расположение каналов                     : Front: L C R, Side: L R, LFE
Частота                                  : 48,0 КГц
Метод сжатия                             : С потерями
Размер потока                            : 456 Мбайт (2%)
Заголовок                                : MVO - «FDV / Киномания»
Язык                                     : Russian
Default                                  : Да
Forced                                   : Нет
Аудио #2
Идентификатор                            : 3
Формат                                   : DTS
Формат/Информация                        : Digital Theater Systems
Режим                                    : 16
Параметр Endianness формата              : Big
Идентификатор кодека                     : A_DTS
Продолжительность                        : 2 ч. 22 м.
Вид битрейта                             : Постоянный
Битрейт                                  : 1509 Кбит/сек
Каналы                                   : 6 каналов
Расположение каналов                     : Front: L C R, Side: L R, LFE
Частота                                  : 48,0 КГц
Битовая глубина                          : 24 бит
Метод сжатия                             : С потерями
Размер потока                            : 1,50 Гбайт (5%)
Заголовок                                : MVO - «Позитив-Мультимедиа»
Язык                                     : Russian
Default                                  : Нет
Forced                                   : Нет
Аудио #3
Идентификатор                            : 4
Формат                                   : DTS
Формат/Информация                        : Digital Theater Systems
Режим                                    : 16
Параметр Endianness формата              : Big
Идентификатор кодека                     : A_DTS
Продолжительность                        : 2 ч. 22 м.
Вид битрейта                             : Постоянный
Битрейт                                  : 1509 Кбит/сек
Каналы                                   : 6 каналов
Расположение каналов                     : Front: L C R, Side: L R, LFE
Частота                                  : 48,0 КГц
Битовая глубина                          : 24 бит
Метод сжатия                             : С потерями
Размер потока                            : 1,50 Гбайт (5%)
Заголовок                                : MVO - «Медиа-Комплекс»
Язык                                     : Russian
Default                                  : Нет
Forced                                   : Нет
Аудио #4
Идентификатор                            : 5
Формат                                   : AC-3
Формат/Информация                        : Audio Coding 3
Расширение режима                        : CM (complete main)
Параметр Endianness формата              : Big
Идентификатор кодека                     : A_AC3
Продолжительность                        : 2 ч. 22 м.
Вид битрейта                             : Постоянный
Битрейт                                  : 448 Кбит/сек
Каналы                                   : 6 каналов
Расположение каналов                     : Front: L C R, Side: L R, LFE
Частота                                  : 48,0 КГц
Метод сжатия                             : С потерями
Размер потока                            : 456 Мбайт (2%)
Заголовок                                : MVO - «НТВ+»
Язык                                     : Russian
Default                                  : Нет
Forced                                   : Нет
Аудио #5
Идентификатор                            : 6
Формат                                   : AC-3
Формат/Информация                        : Audio Coding 3
Расширение режима                        : CM (complete main)
Параметр Endianness формата              : Big
Идентификатор кодека                     : A_AC3
Продолжительность                        : 2 ч. 22 м.
Вид битрейта                             : Постоянный
Битрейт                                  : 192 Кбит/сек
Каналы                                   : 2 канала
Расположение каналов                     : Front: L R
Частота                                  : 48,0 КГц
Метод сжатия                             : С потерями
Размер потока                            : 195 Мбайт (1%)
Заголовок                                : MVO - «СТС / РТР»
Язык                                     : Russian
Default                                  : Нет
Forced                                   : Нет
Аудио #6
Идентификатор                            : 7
Формат                                   : AC-3
Формат/Информация                        : Audio Coding 3
Расширение режима                        : CM (complete main)
Параметр Endianness формата              : Big
Идентификатор кодека                     : A_AC3
Продолжительность                        : 2 ч. 22 м.
Вид битрейта                             : Постоянный
Битрейт                                  : 128 Кбит/сек
Каналы                                   : 2 канала
Расположение каналов                     : Front: L R
Частота                                  : 48,0 КГц
Метод сжатия                             : С потерями
Размер потока                            : 130 Мбайт (0%)
Заголовок                                : MVO - «Премьер Видео Фильм»
Язык                                     : Russian
Default                                  : Нет
Forced                                   : Нет
Аудио #7
Идентификатор                            : 8
Формат                                   : DTS
Формат/Информация                        : Digital Theater Systems
Режим                                    : 16
Параметр Endianness формата              : Big
Идентификатор кодека                     : A_DTS
Продолжительность                        : 2 ч. 22 м.
Вид битрейта                             : Постоянный
Битрейт                                  : 1509 Кбит/сек
Каналы                                   : 6 каналов
Расположение каналов                     : Front: L C R, Side: L R, LFE
Частота                                  : 48,0 КГц
Битовая глубина                          : 24 бит
Метод сжатия                             : С потерями
Размер потока                            : 1,50 Гбайт (5%)
Заголовок                                : AVO - А.Гаврилов
Язык                                     : Russian
Default                                  : Нет
Forced                                   : Нет
Аудио #8
Идентификатор                            : 9
Формат                                   : DTS
Формат/Информация                        : Digital Theater Systems
Режим                                    : 16
Параметр Endianness формата              : Big
Идентификатор кодека                     : A_DTS
Продолжительность                        : 2 ч. 22 м.
Вид битрейта                             : Постоянный
Битрейт                                  : 1509 Кбит/сек
Каналы                                   : 6 каналов
Расположение каналов                     : Front: L C R, Side: L R, LFE
Частота                                  : 48,0 КГц
Битовая глубина                          : 24 бит
Метод сжатия                             : С потерями
Размер потока                            : 1,50 Гбайт (5%)
Заголовок                                : AVO - Ю.Сербин
Язык                                     : Russian
Default                                  : Нет
Forced                                   : Нет
Аудио #9
Идентификатор                            : 10
Формат                                   : AC-3
Формат/Информация                        : Audio Coding 3
Расширение режима                        : CM (complete main)
Параметр Endianness формата              : Big
Идентификатор кодека                     : A_AC3
Продолжительность                        : 2 ч. 22 м.
Вид битрейта                             : Постоянный
Битрейт                                  : 192 Кбит/сек
Каналы                                   : 2 канала
Расположение каналов                     : Front: L R
Частота                                  : 48,0 КГц
Метод сжатия                             : С потерями
Размер потока                            : 195 Мбайт (1%)
Заголовок                                : MVO - «IНТЕР»
Язык                                     : Ukrainian
Default                                  : Нет
Forced                                   : Нет
Аудио #10
Идентификатор                            : 11
Формат                                   : DTS
Формат/Информация                        : Digital Theater Systems
Режим                                    : 16
Параметр Endianness формата              : Big
Идентификатор кодека                     : A_DTS
Продолжительность                        : 2 ч. 22 м.
Вид битрейта                             : Постоянный
Битрейт                                  : 1509 Кбит/сек
Каналы                                   : 6 каналов
Расположение каналов                     : Front: L C R, Side: L R, LFE
Частота                                  : 48,0 КГц
Битовая глубина                          : 24 бит
Метод сжатия                             : С потерями
Размер потока                            : 1,50 Гбайт (5%)
Заголовок                                : Original
Язык                                     : English
Default                                  : Нет
Forced                                   : Нет
Аудио #11
Идентификатор                            : 12
Формат                                   : AC-3
Формат/Информация                        : Audio Coding 3
Расширение режима                        : CM (complete main)
Параметр Endianness формата              : Big
Идентификатор кодека                     : A_AC3
Продолжительность                        : 2 ч. 22 м.
Вид битрейта                             : Постоянный
Битрейт                                  : 192 Кбит/сек
Каналы                                   : 2 канала
Расположение каналов                     : Front: L R
Частота                                  : 48,0 КГц
Метод сжатия                             : С потерями
Размер потока                            : 195 Мбайт (1%)
Заголовок                                : Комментарии Тома Хэнкса
Язык                                     : Russian
Default                                  : Нет
Forced                                   : Нет
Аудио #12
Идентификатор                            : 13
Формат                                   : AC-3
Формат/Информация                        : Audio Coding 3
Расширение режима                        : CM (complete main)
Параметр Endianness формата              : Big
Идентификатор кодека                     : A_AC3
Продолжительность                        : 2 ч. 22 м.
Вид битрейта                             : Постоянный
Битрейт                                  : 192 Кбит/сек
Каналы                                   : 2 канала
Расположение каналов                     : Front: L R
Частота                                  : 48,0 КГц
Метод сжатия                             : С потерями
Размер потока                            : 195 Мбайт (1%)
Заголовок                                : Комментарии продюсера Венди Файнерман
Язык                                     : Russian
Default                                  : Нет
Forced                                   : Нет
Аудио #13
Идентификатор                            : 14
Формат                                   : AC-3
Формат/Информация                        : Audio Coding 3
Профиль формата                          : Dolby Digital
Расширение режима                        : CM (complete main)
Параметр Endianness формата              : Big
Идентификатор кодека                     : A_AC3
Продолжительность                        : 2 ч. 22 м.
Вид битрейта                             : Постоянный
Битрейт                                  : 224 Кбит/сек
Каналы                                   : 2 канала
Расположение каналов                     : Front: L R
Частота                                  : 48,0 КГц
Метод сжатия                             : С потерями
Размер потока                            : 228 Мбайт (1%)
Заголовок                                : Commentary by Tom Hanks
Язык                                     : English
Default                                  : Нет
Forced                                   : Нет
Аудио #14
Идентификатор                            : 15
Формат                                   : AC-3
Формат/Информация                        : Audio Coding 3
Профиль формата                          : Dolby Digital
Расширение режима                        : CM (complete main)
Параметр Endianness формата              : Big
Идентификатор кодека                     : A_AC3
Продолжительность                        : 2 ч. 22 м.
Вид битрейта                             : Постоянный
Битрейт                                  : 224 Кбит/сек
Каналы                                   : 2 канала
Расположение каналов                     : Front: L R
Частота                                  : 48,0 КГц
Метод сжатия                             : С потерями
Размер потока                            : 228 Мбайт (1%)
Заголовок                                : Commentary by producer Wendy Faynerman
Язык                                     : English
Default                                  : Нет
Forced                                   : Нет
Текст #1
Идентификатор                            : 16
Формат                                   : UTF-8
Идентификатор кодека                     : S_TEXT/UTF8
Идентификатор кодека/Информация          : UTF-8 Plain Text
Заголовок                                : Russian - «Позитив-Мультимедиа»
Язык                                     : Russian
Default                                  : Нет
Forced                                   : Нет
Текст #2
Идентификатор                            : 17
Формат                                   : UTF-8
Идентификатор кодека                     : S_TEXT/UTF8
Идентификатор кодека/Информация          : UTF-8 Plain Text
Заголовок                                : Russian - «Медиа-Комплекс»
Язык                                     : Russian
Default                                  : Нет
Forced                                   : Нет
Текст #3
Идентификатор                            : 18
Формат                                   : UTF-8
Идентификатор кодека                     : S_TEXT/UTF8
Идентификатор кодека/Информация          : UTF-8 Plain Text
Заголовок                                : English - Full
Язык                                     : English
Default                                  : Нет
Forced                                   : Нет
Текст #4
Идентификатор                            : 19
Формат                                   : UTF-8
Идентификатор кодека                     : S_TEXT/UTF8
Идентификатор кодека/Информация          : UTF-8 Plain Text
Заголовок                                : Комментарии Тома Хэнкса
Язык                                     : Russian
Default                                  : Нет
Forced                                   : Нет
Текст #5
Идентификатор                            : 20
Формат                                   : UTF-8
Идентификатор кодека                     : S_TEXT/UTF8
Идентификатор кодека/Информация          : UTF-8 Plain Text
Заголовок                                : Комментарии продюсера Венди Файнерман
Язык                                     : Russian
Default                                  : Нет
Forced                                   : Нет
Меню
00:00:00.000                             : en:I"m Forrest...Forrest Gump
00:06:43.569                             : en:Mama
00:12:24.577                             : en:Like Peas and Carrots
00:19:56.945                             : en:Run Forrest Run!
00:31:13.705                             : en:Private gump
00:40:40.187                             : en:Lieutenant Dan
00:44:18.113                             : en:My Best Good Friend
00:56:34.474                             : en:Wounded in the Buttocks
01:03:32.266                             : en:You"re My Girl
01:13:34.076                             : en:National Celebrity
01:17:02.826                             : en:Happy New Year
01:23:52.277                             : en:Shrimp Boat Captain
01:34:59.944                             : en:Bubba Gump
01:38:55.596                             : en:Mama"s Trip to Heaven
01:43:52.893                             : en:Jenny Comes Home
01:51:28.306                             : en:A Little Run
01:58:54.710                             : en:Forrest Meets Forrest
02:04:48.564                             : en:Beloved Mother, Wife and Friend
02:15:25.200                             : en:Credits

Награды и премии

3 приза Национального совета обозревателей — за фильм (поровну с «Криминальным чтивом»), главную и второплановую (Гэри Синиз) мужские роли, «Аманда» в Норвегии и «Чешский лев» в Чехии за лучший иностранный фильм.
Оскар, 1995 год
Победитель (6):
*** Лучший фильм
*** Лучшая мужская роль (Том Хэнкс)
*** Лучший режиссер (Роберт Земекис)
*** Лучший адаптированный сценарий
*** Лучший монтаж
*** Лучшие визуальные эффекты
Номинации (7):
*** Лучшая мужская роль второго плана (Гэри Синиз)
*** Лучшая работа оператора
*** Лучшие декорации
*** Лучший звук
*** Лучший монтаж звука
*** Лучший грим
*** Лучший оригинальный саундтрек

Золотой глобус, 1995 год
Победитель (3):
*** Лучший фильм (драма)
*** Лучшая мужская роль (драма) (Том Хэнкс)
*** Лучший режиссер (Роберт Земекис)
Номинации (4):
*** Лучшая мужская роль второго плана (Гэри Синиз)
*** Лучшая женская роль второго плана (Робин Райт)
*** Лучший сценарий
*** Лучший саундтрек
Премия канала «MTV», 1995 год
Номинации (3):
*** Лучший фильм
*** Лучшая мужская роль (Том Хэнкс)
*** Прорыв года (Майкелти Уильямсон)
Британская академия, 1995 год
Победитель (1):
*** Лучшие визуальные эффекты
Номинации (7):
*** Лучший фильм
*** Лучшая мужская роль (Том Хэнкс)
*** Лучшая женская роль второго плана (Салли Филд)
*** Лучший адаптированный сценарий
*** Лучшая работа оператора
*** Лучший монтаж
*** Премия имени Дэвида Лина за достижения в режиссуре (Роберт Земекис)
Сатурн, 1995 год
Победитель (2):
*** Лучший фэнтези-фильм
*** Лучший актер второго плана (Гэри Синиз)
Номинации (6):
*** Лучший режиссер (Роберт Земекис)
*** Лучший актер (Том Хэнкс)
*** Лучшая актриса второго плана (Робин Райт)
*** Лучший сценарий
*** Лучшие спецэффекты
*** Лучшая музыка
Премия Гильдии актеров, 1995 год
Победитель (1):
*** Лучшая мужская роль (Том Хэнкс)
Номинации (3):
*** Лучшая женская роль второго плана (Салли Филд)
*** Лучшая женская роль второго плана (Робин Райт)
*** Лучшая мужская роль второго плана (Гэри Синиз)

Интересные факты

*** Фильм снят по мотивам романа Уинстона Грума «Форрест Гамп» (Forrest Gump, 1986).
*** Изначально в качестве кандидатов на главную роль рассматривались Билл Мюррей, Джон Траволта и Чеви Чейз.
*** В эпизодических ролях были задействованы Александр Земекис (сын режиссера) и Элизабет Хэнкс (дочь актера).
*** Фильм достаточно далеко ушёл от исходного романа Уинстона Грума, в котором Форрест Гамп показан резким несносным циником. А цитата из фильма «Жизнь — это как коробка конфет» полностью противоположна мысли из романа «Быть идиотом — это не коробка конфет».
*** В ходе съемок одной из сцен Том Хэнкс говорит: «Мое имя — Форрест Гамп. Люди зовут меня Форрест Гамп». На самом деле актер совершил оговорку, но режиссеру Роберту Земекису она пришлась по вкусу, и он включил именно этот дубль в итоговую версию картины.
*** Режиссерское кресло могло достаться Барри Зонненфельду и Терри Гиллиаму.
*** Во время съемок футбольных сцен Том Хэнкс был болен гриппом, однако стойко выдержал испытания и отработал в эти дни через «не могу».
*** Том Хэнкс согласился принять участие в съемках с одним условием: все события картины должны перекликаться с реальными историческими событиями.
*** Имя персонажа Forrest Gump созвучно словосочетанию «forest gamp» — что в переводе с английского означает «лесной зонтик». Сами слова, однако, переводятся как «лесной житель» и «болван».
*** Кинокомпания Warner Bros. отказалась от прав на этот фильм в 1988 году, посчитав, что реализация этого проекта будет коммерчески невыгодна после выхода фильма «Человек дождя».
*** Оригинальный акцент Форреста Гампа Том Хэнкс подсмотрел у Майкла Коннера Хамфриса, игравшего молодого Гампа и действительно в жизни говорившего с таким акцентом.
*** Почти все реплики давно умершего Джона Леннона для этого фильма были взяты из его песни «Imagine».
*** При каждой «смене возраста» Форреста одна вещь остаётся неизменной — в первой сцене в «новом» возрасте Форрест появляется в синей рубашке.
*** Фамилия Дженни — Каррен — фигурирует только один раз в фильме: на конверте, который вернулся Форресту во Вьетнам.
*** Салли Филд, игравшая маму Форреста, всего на 10 лет старше Тома Хэнкса.
*** Во время съемок бега Тома Хэнкса часто подменял дублер, его брат Джим Хэнкс.
*** «Оторванные» ноги Гэри Синиза при съёмке были обёрнуты специальным синим полотном, что позволило их потом «стереть» из кадра посредством компьютерных спецэффектов. Тем не менее в некоторых эпизодах заметно как лейтенант Ден слегка опирается на отсутствующие конечности. Также инвалидное кресло лейтенанта Дэна было оборудовано специальной системой зеркал, подобной тем, что используют фокусники, и разработанной при участии Рикки Джея.
*** Сцена, в которой Форрест Гамп получает Медаль Почёта, была смонтирована из архивной плёнки награждения рядового 1-го класса Сэмми Л. Дэвиса (19 ноября 1968 года), который имел ранения спины и ягодиц в результате «дружественного огня».
*** Салли Филд ранее уже снималась вместе с Томом Хэнксом — это произошло на съемочной площадке картины «Изюминка» (1988). В этом фильме герой Хэнкса ухаживает и даже делает предложение героине Салли.

Ошибки в фильме

*** После того, как Дженни (Робин Райт) умирает, Форест приходит посетить ее могилу. Он говорит: «Ты умерла в субботу». Однако надпись на могильном камне противоречит данной фразе. Там указана дата смерти — 22 марта 1982 года (понедельник).
Скриншоты:
Время раздачи: С 09:00 до 23:00 до 5 скачавших
Яндекс.Метрика
Рейтинг@Mail.ru