Тупой и еще тупее 2 / Dumb and Dumber To (2014) BDRip [H.264]

 

Создавать темы 22-Июл-2015 21:53

-Тупой и еще тупее 2 / Dumb and Dumber To (2014) BDRip [H.264]
« The average person uses 10% of their brain capacity. Imagine what he could do with 1% »
- Производство: США | Universal Pictures, Conundrum Entertainment, New Line Cinema, Red Granite Pictures
Жанр: Комедия
Режиссер: Питер Фаррелли, Бобби Фаррелли
Актеры: Джим Керри, Джефф Дэниелс, Роб Риггл, Лори Холден, Рэйчел Мелвин, Кэтлин Тёрнер, Стив Том, Дон Лейк, Патриция Френч, Билл Мюррей, Темби Лок, Пол Блекторн, Брэйди Блум, Эдди Шин, Томми Снайдер
Описание: Ллойд стал постоянным клиентом психиатрической больницы, Гарри же болен и для него нет шансов вылечиться. Возраст берет свое, но на умственных способностях это не отразилось: парочка осталось такой же недалекой, как раньше. 20 лет Ллойд находится под присмотром психиатров - какие тут приключения! Но его плохое состояние - всего лишь обман! Именно вопрос здоровья сводит снова двух друзей, ведь Гарри срочно нужен новый орган. Но комики пускаются в путь не за донором, а за ребенком Гарри! Оказывается, уже давно одна дама стала матерью, а отцом записали именно его - даже не подозревающего о существовании дочери. Как всегда, в пути их ожидает много курьезов!
[img]https://www.kinopoisk.ru/rating/645087.gif[/img]
Возраст: 16+ Зрителям, достигшим 16 лет
Рейтинг MPAA: PG-13 Детям до 13 лет просмотр не желателен
Дата мировой премьеры: 7 ноября 2014
Дата российской премьеры: 22 января 2015, «West»
Продолжительность: 01:49:30
Качество видео: BDRip
Перевод: Дублированный, многоголосый закадровый
Вид субтитров: Вшитые отключаемые
Язык субтитров: Русский, Английский
Видео: MPEG-4 AVC/H.264, 2800 Kbps, 1024 x 554
Аудио 1: Русский AC3 2.0, 224 Kbps, 48.0 KHz (Дублированный) Пифагор
Аудио 2: Русский AC3 5.1, 448 Kbps, 48.0 KHz (Многоголосый закадровый) Gears Media
Аудио 3: Английский AC3 5.1, 448 Kbps, 48.0 KHz (Оригинал)

MediaInfo

Общее
Полное имя                               : Тупой и еще тупее 2.mkv
Формат                                   : Matroska
Версия формата                           : Version 1
Размер файла                             : 3,00 Гбайт
Продолжительность                        : 1 ч. 49 м.
Общий поток                              : 3924 Кбит/сек
Дата кодирования                         : UTC 2015-07-22 19:07:52
Программа кодирования                    : mkvmerge v2.4.1 ("Use Me") built on Dec  5 2008 18:30:05
Библиотека кодирования                   : libebml v0.7.7 + libmatroska v0.8.1
Видео
Идентификатор                            : 1
Формат                                   : AVC
Формат/Информация                        : Advanced Video Codec
Профиль формата                          : [url=mailto:[email protected]][email protected][/url]
Параметр CABAC формата                   : Да
Параметр ReFrames формата                : 10 кадров
Идентификатор кодека                     : V_MPEG4/ISO/AVC
Продолжительность                        : 1 ч. 49 м.
Битрейт                                  : 2800 Кбит/сек
Ширина                                   : 1024 пикселя
Высота                                   : 554 пикселя
Соотношение сторон                       : 1,85:1
Режим частоты кадров                     : Постоянный
Частота кадров                           : 23,976 кадра/сек
Цветовое пространство                    : YUV
Субдискретизация насыщенности            : 4:2:0
Битовая глубина                          : 8 бит
Тип развёртки                            : Прогрессивная
Бит/(Пиксели*Кадры)                      : 0.206
Размер потока                            : 2,09 Гбайт (69%)
Заголовок                                : Тупой и еще тупее 2 (2014)
Библиотека кодирования                   : x264 core 146 r2538 121396c
Настройки программы                      : cabac=1 / ref=10 / deblock=1:-3:-3 / analyse=0x3:0x133 / me=umh / subme=10 / psy=1 / psy_rd=1.00:0.10 / mixed_ref=1 / me_range=48 / chroma_me=1 / trellis=2 / 8x8dct=1 / cqm=0 / deadzone=21,11 / fast_pskip=0 / chroma_qp_offset=-3 / threads=6 / lookahead_threads=1 / sliced_threads=0 / nr=0 / decimate=1 / interlaced=0 / bluray_compat=0 / constrained_intra=0 / bframes=5 / b_pyramid=2 / b_adapt=2 / b_bias=0 / direct=3 / weightb=1 / open_gop=0 / weightp=2 / keyint=240 / keyint_min=22 / scenecut=40 / intra_refresh=0 / rc_lookahead=40 / rc=2pass / mbtree=1 / bitrate=2800 / ratetol=1.0 / qcomp=0.60 / qpmin=10 / qpmax=51 / qpstep=4 / cplxblur=20.0 / qblur=0.5 / ip_ratio=1.40 / aq=1:1.00
Язык                                     : English
Default                                  : Да
Forced                                   : Нет
Аудио #1
Идентификатор                            : 2
Формат                                   : AC-3
Формат/Информация                        : Audio Coding 3
Расширение режима                        : CM (complete main)
Параметр Endianness формата              : Big
Идентификатор кодека                     : A_AC3
Продолжительность                        : 1 ч. 49 м.
Вид битрейта                             : Постоянный
Битрейт                                  : 224 Кбит/сек
Каналы                                   : 2 канала
Расположение каналов                     : Front: L R
Частота                                  : 48,0 КГц
Битовая глубина                          : 16 бит
Метод сжатия                             : С потерями
Размер потока                            : 175 Мбайт (6%)
Заголовок                                : AC3 (Дублированный) Пифагор
Язык                                     : Russian
Default                                  : Да
Forced                                   : Нет
Аудио #2
Идентификатор                            : 3
Формат                                   : AC-3
Формат/Информация                        : Audio Coding 3
Расширение режима                        : CM (complete main)
Параметр Endianness формата              : Big
Идентификатор кодека                     : A_AC3
Продолжительность                        : 1 ч. 49 м.
Вид битрейта                             : Постоянный
Битрейт                                  : 448 Кбит/сек
Каналы                                   : 6 каналов
Расположение каналов                     : Front: L C R, Side: L R, LFE
Частота                                  : 48,0 КГц
Битовая глубина                          : 16 бит
Метод сжатия                             : С потерями
Размер потока                            : 351 Мбайт (11%)
Заголовок                                : AC3 (Многоголосый) Gears Media
Язык                                     : Russian
Default                                  : Нет
Forced                                   : Нет
Аудио #3
Идентификатор                            : 4
Формат                                   : AC-3
Формат/Информация                        : Audio Coding 3
Расширение режима                        : CM (complete main)
Параметр Endianness формата              : Big
Идентификатор кодека                     : A_AC3
Продолжительность                        : 1 ч. 49 м.
Вид битрейта                             : Постоянный
Битрейт                                  : 448 Кбит/сек
Каналы                                   : 6 каналов
Расположение каналов                     : Front: L C R, Side: L R, LFE
Частота                                  : 48,0 КГц
Битовая глубина                          : 16 бит
Метод сжатия                             : С потерями
Размер потока                            : 351 Мбайт (11%)
Заголовок                                : AC3 (Оригинал)
Язык                                     : English
Default                                  : Нет
Forced                                   : Нет
Текст #1
Идентификатор                            : 5
Формат                                   : UTF-8
Идентификатор кодека                     : S_TEXT/UTF8
Идентификатор кодека/Информация          : UTF-8 Plain Text
Заголовок                                : Русские
Язык                                     : Russian
Default                                  : Нет
Forced                                   : Нет
Текст #2
Идентификатор                            : 6
Формат                                   : UTF-8
Идентификатор кодека                     : S_TEXT/UTF8
Идентификатор кодека/Информация          : UTF-8 Plain Text
Заголовок                                : Английские
Язык                                     : English
Default                                  : Нет
Forced                                   : Нет

Дополнительная информация

» Дженнифер Лоуренс, являющаяся поклонницей фильма «Тупой и еще тупее» (1994), хотела попасть на прослушивание для этого фильма.
» Братья Бобби Фаррелли и Питер Фаррелли никак не могли связаться с Брэйди Блумом, чтобы предложить ему снова сыграть его персонажа из первого фильма. В итоге выйти на Блума получилось через его страницу на Facebook.
» За день до начала съёмок сиквела Джефф Дэниелс получил свою первую премию «Эмми».
» Между выходом первого и второго фильмов прошло 20 лет.
Скриншоты:
Время раздачи: С 9:00 до 21:00
Яндекс.Метрика
Рейтинг@Mail.ru