[ Сегодня на трекере фрилич! Идет свободное скачивание без начисления Download ]

Неудачники / Underdog Kids (2015) WEB-DL 720p | L1

 

Создавать темы 21-Июл-2015 19:49

Неудачники / Underdog KidsГод выхода: 2015
Жанр: боевик, семейный
Режиссер: Филлип Ри
В ролях: Филлип Ри, Бо Бриджес, Мирелли Тейлор, Том Арнольд, Макс Гэйл, Эллиа Инглиш, Лорен Боулз, Адам Иригойен, Грег Гранберг, Тед МакГинли
О фильме: Дети из бедного квартала города готовы сразиться с соседствующей юниорской командой по карате из Беверли Хиллс...

Выпущено: США / Group Hug Productions, Itsy Bitsy Film
Продолжительность: 01:34:23
Озвучивание: Любительское (одноголосое) [Paul Bunyan], перевод [Paul Bunyan]
Файл
Формат: MKV
Качество: WEB-DL 720p
Видео: 3948 kb/s, 1280x716
Аудио: Russian: AC3, 256 kb/s (6 ch) / English: AC3, 384 kb/s (6 ch)
Субтитры: English

MI:

[scroll]
Format : Matroska
Format version : Version 4 / Version 2
File size : 3.09 GiB
Duration : 1h 34mn
Overall bit rate : 4 681 Kbps
Encoded date : UTC 2015-07-20 18:17:28
Writing application : mkvmerge v6.1.0 ('Old Devil') built on Mar 4 2013 09:10:42
Writing library : libebml v1.3.0 + libmatroska v1.4.0
Video
ID : 1
Format : AVC
Format/Info : Advanced Video Codec
Format profile : [email protected]
Format settings, CABAC : No
Format settings, ReFrames : 2 frames
Codec ID : V_MPEG4/ISO/AVC
Duration : 1h 34mn
Bit rate : 3 948 Kbps
Width : 1 280 pixels
Height : 716 pixels
Display aspect ratio : 16:9
Frame rate mode : Constant
Frame rate : 23.976 fps
Color space : YUV
Chroma subsampling : 4:2:0
Bit depth : 8 bits
Scan type : Progressive
Bits/(Pixel*Frame) : 0.180
Stream size : 2.60 GiB (84%)
Language : English
Default : Yes
Forced : No
Color range : Limited
Color primaries : BT.709
Transfer characteristics : BT.709
Matrix coefficients : BT.709
Audio #1
ID : 2
Format : AC-3
Format/Info : Audio Coding 3
Mode extension : CM (complete main)
Format settings, Endianness : Big
Codec ID : A_AC3
Duration : 1h 34mn
Bit rate mode : Constant
Bit rate : 256 Kbps
Channel(s) : 6 channels
Channel positions : Front: L C R, Side: L R, LFE
Sampling rate : 48.0 KHz
Bit depth : 16 bits
Compression mode : Lossy
Stream size : 173 MiB (5%)
Language : Russian
Default : Yes
Forced : No
Audio #2
ID : 3
Format : AC-3
Format/Info : Audio Coding 3
Mode extension : CM (complete main)
Format settings, Endianness : Big
Codec ID : A_AC3
Duration : 1h 34mn
Bit rate mode : Constant
Bit rate : 384 Kbps
Channel(s) : 6 channels
Channel positions : Front: L C R, Side: L R, LFE
Sampling rate : 48.0 KHz
Bit depth : 16 bits
Compression mode : Lossy
Stream size : 259 MiB (8%)
Language : English
Default : No
Forced : No
Text
ID : 4
Format : UTF-8
Codec ID : S_TEXT/UTF8
Codec ID/Info : UTF-8 Plain Text
Language : English
Default : No
Forced : No
Menu
00:00:00.000 : en:Main Titles
00:02:51.000 : en:The New Coach
00:10:33.000 : en:The Competition
00:18:07.000 : en:"Your Kids Really Suck"
00:28:40.000 : en:Looking For Help
00:36:00.000 : en:Big Mama To The Rescue
00:44:52.000 : en:The Underdogs
00:50:28.000 : en:Unconventional Training
00:59:29.000 : en:Opportunity Knocks
01:07:09.000 : en:Unsportsmanlike Conduct
01:18:34.000 : en:Overcoming Obstacles
01:30:25.000 : en:End Credits[/scroll]

Скриншоты:

Яндекс.Метрика
Рейтинг@Mail.ru