Da Vinci Learning: BBC: Музыка простых чисел / The Music of the Primes [серии 1-3 из 3]

 

Создавать темы 20-Июл-2015 13:32

Da Vinci Learning: BBC: Музыка простых чисел / The Music of the Primes [серии 1-3 из 3]
Год выпуска: 2006
Страна: Великобритания, BBC Open University Partnership
Жанр: Документальный, научно-познавательный, исследования, гипотезы
Продолжительность: 3x~00:26:06
Перевод: Профессиональный (одноголосый)
Режисер: Kieran Smyth
В ролях: ведущий - профессор математики Маркус дю Сотуа
Описание: Тайна простых чисел не дает покоя математикам уже многие века. Это величайшая нерешенная загадка математики - и тот, кто разгадает ее, обессмертит свое имя!
Мир математики немыслим без них – без простых чисел. Что такое простые числа, что в них особенного и какое значение они имеют для повседневной жизни?
В этих выпусках программы "Музыка простых чисел" британский профессор математики Маркус дю Сотуа откроет тайну простых чисел.
Качество: SATRip
Контейнер: AVI
Видео кодек: XviD
Аудио кодек: AC3
Видео: 704x400 25fps 1800kbps
Аудио: AC3 2ch, 48kHz, 192 kbps

MediaInfo

Format : AVI
Format/Info : Audio Video Interleave
File size : 374 MiB
Duration : 26mn 6s
Overall bit rate : 2 001 Kbps
Writing application : VirtualDubMod 1.5.10.3 | www.virtualdub-fr.org || (build 2550/release)
Writing library : VirtualDubMod build 2550/release
Video
ID : 0
Format : MPEG-4 Visual
Format profile : Advanced [email protected]
Format settings, BVOP : 2
Format settings, QPel : Yes
Format settings, GMC : 3 warppoints
Format settings, Matrix : Default (H.263)
Codec ID : XVID
Codec ID/Hint : XviD
Duration : 26mn 6s
Bit rate : 1 800 Kbps
Width : 704 pixels
Height : 400 pixels
Display aspect ratio : 16:9
Frame rate : 25.000 fps
Color space : YUV
Chroma subsampling : 4:2:0
Bit depth : 8 bits
Scan type : Progressive
Compression mode : Lossy
Bits/(Pixel*Frame) : 0.256
Stream size : 336 MiB (90%)
Writing library : XviD 1.2.1 (UTC 2008-12-04)
Audio
ID : 1
Format : AC-3
Format/Info : Audio Coding 3
Mode extension : CM (complete main)
Format settings, Endianness : Big
Codec ID : 2000
Duration : 26mn 6s
Bit rate mode : Constant
Bit rate : 192 Kbps
Channel(s) : 2 channels
Channel positions : Front: L R
Sampling rate : 48.0 KHz
Compression mode : Lossy
Stream size : 35.9 MiB (10%)
Alignment : Split accross interleaves
Interleave, duration : 40 ms (1.00 video frame)
Interleave, preload duration : 500 ms
-Благодарность за предоставленный рип:
Яндекс.Метрика
Рейтинг@Mail.ru