Динозавр 13 / Dinosaur 13

 

Создавать темы 20-Июл-2015 10:44

Динозавр 13 / Dinosaur 13
Год выпуска: 2014
Страна: США, Statement Pictures
Жанр: Документальный, драма
Продолжительность: 01:30:13
Перевод: Профессиональный (многоголосый, закадровый)
Режисер: Тодд Дуглас Миллер / Todd Douglas Miller
В ролях: Stan Adelstein, Lanice Archer, Джек Хорнер, Роберт Баккер, Филип Карри, Тимоти Ларсон, Kristin Donnan, Фил Мэннинг, Кейт Нельсон, Луи Психойос, Патрик Даффи, Билл Хэрлан, Bruce Ellison, Denise Etzkorn, Bob Farrar
Описание: В 1990 году палеонтолог Питер Ларсен и его коллеги из института Блэк-Хиллс обнаружили полностью сохранившийся скелет тираннозавра. Эту находку можно было справедливо назвать событием века. Однако, дальнейшие исследования осложнились из-за разногласий с правительством, музеями и сообществами коренных жителей Америки. Так попытка отстоять свою находку обернулась для ученых борьбой за свои права и свободу.
Доп. информация: Гран-при в категории «Документальный фильм»
Качество: SATRip
Контейнер: AVI
Видео кодек: XviD
Аудио кодек: AC3
Видео: 704x400 25fps 1800kbps
Аудио: AC3 2ch, 48kHz, 192 kbps

MediaInfo

Format : AVI
Format/Info : Audio Video Interleave
File size : 1.26 GiB
Duration : 1h 30mn
Overall bit rate : 2 002 Kbps
Writing application : VirtualDubMod 1.5.10.3 | www.virtualdub-fr.org || (build 2550/release)
Writing library : VirtualDubMod build 2550/release
Video
ID : 0
Format : MPEG-4 Visual
Format profile : Advanced [email protected]
Format settings, BVOP : 3
Format settings, QPel : Yes
Format settings, GMC : 3 warppoints
Format settings, Matrix : Default (H.263)
Codec ID : XVID
Codec ID/Hint : XviD
Duration : 1h 30mn
Bit rate : 1 800 Kbps
Width : 720 pixels
Height : 400 pixels
Display aspect ratio : 16:9
Frame rate : 25.000 fps
Color space : YUV
Chroma subsampling : 4:2:0
Bit depth : 8 bits
Scan type : Progressive
Compression mode : Lossy
Bits/(Pixel*Frame) : 0.250
Stream size : 1.13 GiB (90%)
Writing library : XviD 1.2.1 (UTC 2008-12-04)
Audio
ID : 1
Format : AC-3
Format/Info : Audio Coding 3
Mode extension : CM (complete main)
Format settings, Endianness : Big
Codec ID : 2000
Duration : 1h 30mn
Bit rate mode : Constant
Bit rate : 192 Kbps
Channel(s) : 2 channels
Channel positions : Front: L R
Sampling rate : 48.0 KHz
Compression mode : Lossy
Stream size : 124 MiB (10%)
Alignment : Split accross interleaves
Interleave, duration : 40 ms (1.00 video frame)
Interleave, preload duration : 500 ms
-Благодарность за предоставленный рип:
Яндекс.Метрика
Рейтинг@Mail.ru