Откровения пирамид La revelation des pyramides

 

Создавать темы 20-Июл-2015 09:28

Откровения пирамид
La revelation des pyramides

Год выпуска: 2010
Страна: Франция
Жанр: Документальный, исследование, история
Продолжительность: 01:41:46
Перевод: Профессиональный (многоголосый закадровый)
Субтитры: нет
Режисер: Патрис Пуйар / Patrice Pooyard
Описание: Многие века тайны Великих Пирамид в Гизе будоражат умы людей. Сотни тысяч туристов со всего мира каждый год отправляются в Египет, чтобы увидеть Великого Сфинкса и Пирамиды Хеопса, Хефрена и Микерина. Путь создателей фильма пролег от Китая до Перу, от Египта до Мексики и от Ближнего Востока до острова Пасхи — по древнейшим, красивейшим и наиболее таинственным местам нашей планеты. Создатели этого документального блокбастера предлагают совершенно новую и непривычную для приверженцев традиционного академического подхода точку зрения на то, что являют собой Великие Пирамиды на самом деле.
Тип релиза: BDRip 1080p (чаптеры сохранены)
Контейнер: MKV
Видео: MPEG4 Video (H264) 1920x1036 25fps 11Mbps
Аудио: Dolby AC3 48000Hz 5ch 384Kbps [Многоголосый закадровый]
Аудио 2: DTS 48000Hz 6ch 1509Kbps [English]

MediaInfo

GeneralUnique ID : 179748719096718800989497443952537358605 (0x873A581424ADF60FBBB96CAB55FBD10D)Complete name : D:\TORRENTS\The Revelation of the Pyramids BDRip 1080р.mkvFormat : MatroskaFormat version : Version 2File size : 9.15 GiBDuration : 1h 41mnOverall bit rate mode : VariableOverall bit rate : 12.9 MbpsEncoded date : UTC 2012-10-16 16:00:35Writing application : mkvmerge v5.7.0 ('The Whirlwind') built on Jul 8 2012 20:08:51Writing library : libebml v1.2.3 + libmatroska v1.3.0
VideoID : 1Format : AVCFormat/Info : Advanced Video CodecFormat profile : [email protected] settings, CABAC : YesFormat settings, ReFrames : 3 framesCodec ID : V_MPEG4/ISO/AVCDuration : 1h 41mnBit rate mode : VariableBit rate : 11.0 MbpsMaximum bit rate : 13.5 MbpsWidth : 1 920 pixelsHeight : 1 036 pixelsDisplay aspect ratio : 1.85:1Frame rate mode : ConstantFrame rate : 25.000 fpsColor space : YUVChroma subsampling : 4:2:0Bit depth : 8 bitsScan type : ProgressiveBits/(Pixel*Frame) : 0.221Stream size : 7.62 GiB (83%)Writing library : x264 core 125 r2200 999b753Encoding settings : cabac=1 / ref=4 / deblock=1:-3:-3 / analyse=0x3:0x113 / me=umh / subme=10 / psy=1 / psy_rd=1.00:0.00 / mixed_ref=1 / me_range=32 / chroma_me=1 / trellis=2 / 8x8dct=1 / cqm=0 / deadzone=21,11 / fast_pskip=1 / chroma_qp_offset=-2 / threads=6 / lookahead_threads=1 / sliced_threads=0 / slices=4 / nr=0 / decimate=1 / interlaced=0 / bluray_compat=1 / constrained_intra=0 / bframes=3 / b_pyramid=1 / b_adapt=2 / b_bias=0 / direct=3 / weightb=1 / open_gop=1 / weightp=1 / keyint=250 / keyint_min=1 / scenecut=40 / intra_refresh=0 / rc_lookahead=80 / rc=2pass / mbtree=1 / bitrate=11000 / ratetol=1.0 / qcomp=0.60 / qpmin=0 / qpmax=69 / qpstep=4 / cplxblur=20.0 / qblur=0.5 / vbv_maxrate=13500 / vbv_bufsize=11000 / nal_hrd=vbr / ip_ratio=1.40 / aq=1:1.00Language : EnglishDefault : YesForced : No
Audio #1ID : 2Format : AC-3Format/Info : Audio Coding 3Mode extension : CM (complete main)Format settings, Endianness : BigCodec ID : A_AC3Duration : 1h 41mnBit rate mode : ConstantBit rate : 384 KbpsChannel(s) : 5 channelsChannel positions : Front: L C R, Side: L RSampling rate : 48.0 KHzBit depth : 16 bitsCompression mode : LossyStream size : 280 MiB (3%)Language : RussianDefault : YesForced : Yes
Audio #2ID : 3Format : DTSFormat/Info : Digital Theater SystemsMode : 16Format settings, Endianness : BigCodec ID : A_DTSDuration : 1h 41mnBit rate mode : ConstantBit rate : 1 509 KbpsChannel(s) : 6 channelsChannel positions : Front: L C R, Side: L R, LFESampling rate : 48.0 KHzBit depth : 24 bitsCompression mode : LossyStream size : 1.07 GiB (12%)Language : EnglishDefault : NoForced : No
Menu00:00:00.000 : :Chapter 0100:08:38.079 : :Chapter 0200:18:47.680 : :Chapter 0300:27:42.880 : :Chapter 0400:39:46.240 : :Chapter 0500:48:54.400 : :Chapter 0600:56:52.480 : :Chapter 0701:08:37.120 : :Chapter 0801:16:45.760 : :Chapter 0901:23:44.320 : :Chapter 1001:32:08.800 : :Chapter 1101:39:04.000 : :Chapter 12
-Автор рипа - Cossmoss
Сведение дорожек - nyctalus
Яндекс.Метрика
Рейтинг@Mail.ru