Viasat History: Как болезни монархов изменили историю / Fit to Rule: How Royal Illness Changed History [серии 1-3 из 3]

 

Создавать темы 20-Июл-2015 09:25

Viasat History: Как болезни монархов изменили историю / Fit to Rule: How Royal Illness Changed History [серии 1-3 из 3]
Год выпуска: 2013
Страна: Великобритания, Silver River
Жанр: Документальный, исследование, история
Продолжительность: 3x~00:59:00
Перевод: Профессиональный (одноголосый), переведено и озвучено на студии "SDI Media" перевод Геннадия Максимова, текст читает Виктория Бабанова
Режисер: Paul Berczeller, Eleanor Scoones, Nick Gillam-Smith
В ролях: ведущая - Люси Уорсли
Описание: Люси Уорсли изучит медицинские заключения, личную переписку и даже одежду королей, чтобы понять, с какими проблемами они сталкивались. Люси начнет свой рассказ с Генриха VIII, который постоянно находился под пристальным вниманием врачей. Затем, мы узнаем, какие проблемы были у сына Генриха Эдварда VI, когда он стал королем в 9 лет. Мы также узнаем о трагической судьбе королевы Марии и ее мнимой беременности. Затем Люси расскажет о короле Чарльзе I и его проблемной походке, что позднее сказалось на его характере. В заключении перед нами предстанет Георг III, который, возможно, страдал от маниакальных депрессий.
Список серий: 01. От богов до людей / Tudors to Stuarts: From Gods to Men
Историк Люси Уорсли, исследуя истории болезней Тюдоров и Стюартов, расскажет, каким образом различные недуги повлияли на судьбу этих двух совершенно разных династий.
02. Дурная кровь: От Стюартов до Гановерцев / Bad Blood: Stuarts to Hanoverians
Историк Люси Уорсли исследует истории болезней последних представителей рода Стюартов, начиная с короля Иакова II и заканчивая возникновением Ганноверской династии.
03. Счастливые семейства. От Гановерцев к Виндзорам / Happy Families: Hanoverians to Windsors
Историк Люси Уорсли исследует истории болезней королевы Виктории и ее потомков.
Качество: SATRip
Контейнер: AVI
Видео кодек: XviD
Аудио кодек: AC3
Видео: 704x400 25fps 1800kbps
Аудио: AC3, 2 ch, 192kbps

MediaInfo

Format : AVI
Format/Info : Audio Video Interleave
File size : 848 MiB
Duration : 59mn 1s
Overall bit rate : 2 009 Kbps
Writing application : VirtualDubMod 1.5.10.3 | www.virtualdub-fr.org || (build 2550/release)
Writing library : VirtualDubMod build 2550/release
Video
ID : 0
Format : MPEG-4 Visual
Format profile : Advanced [email protected]
Format settings, BVOP : 2
Format settings, QPel : Yes
Format settings, GMC : 3 warppoints
Format settings, Matrix : Default (H.263)
Codec ID : XVID
Codec ID/Hint : XviD
Duration : 59mn 1s
Bit rate : 1 808 Kbps
Width : 704 pixels
Height : 400 pixels
Display aspect ratio : 16:9
Frame rate : 25.000 fps
Color space : YUV
Chroma subsampling : 4:2:0
Bit depth : 8 bits
Scan type : Progressive
Compression mode : Lossy
Bits/(Pixel*Frame) : 0.257
Stream size : 763 MiB (90%)
Writing library : XviD 1.2.1 (UTC 2008-12-04)
Audio
ID : 1
Format : AC-3
Format/Info : Audio Coding 3
Mode extension : CM (complete main)
Format settings, Endianness : Big
Codec ID : 2000
Duration : 59mn 1s
Bit rate mode : Constant
Bit rate : 192 Kbps
Channel(s) : 2 channels
Channel positions : Front: L R
Sampling rate : 48.0 KHz
Compression mode : Lossy
Stream size : 81.0 MiB (10%)
Alignment : Split accross interleaves
Interleave, duration : 40 ms (1.00 video frame)
Interleave, preload duration : 500 ms
-Благодарность за предоставленный рип:
Яндекс.Метрика
Рейтинг@Mail.ru