[ Сегодня на трекере фрилич! Идет свободное скачивание без начисления Download ]

Убойный футбол / Shaolin Soccer / Siu lam juk kau (2001,Комедия, Спорт) HDRip

 

Создавать темы 12-Дек-2013 14:42

-Убойный футбол / Shaolin Soccer / Siu lam juk kau (2001,Комедия, Спорт) HDRip- Страна: Гонконг, Китай
Жанр: Комедия, Спорт
Год выпуска: 2001
Продолжительность: 01:52:22
Перевод: Профессиональный (дублированный) Мосфильм + вставки из MVO
Cубтитры: нет
Режиссер: Стивен Чоу / Stephen Chow
В ролях: Стивен Чоу, Мэн Тат ЭнДжи, Чжао Вэй, Йин Тсе, Хуи Ли, Сесилия Чунг, Карен Мок, Винсент Кок, Кай Мэн Тинь, Лам Чи Чунг
Описание: Шесть братьев под руководством опытного футбольного тренера создают непобедимую команду. Объединив неоценимый опыт древних мастеров кунг-фу и современную тактику футбольного боя, они подают заявку на участие в престижном футбольном первенстве с призом в миллион долларов…

Качество видео: HDRip - Исходник BDRip 1080p
Формат видео: AVI
Видео кодек: XviD
Аудио кодек: AC3
Видео: 688x384 (1.79:1), 23.976 fps, XviD build 73 ~1466 kbps avg, 0.23 bit/pixel
Аудио: 48 kHz, AC3 Dolby Digital, 3/2 (L,C,R,l,r) + LFE ch, ~384 kbps-

Скриншоты

MI

D:Мои рипыUbojnyj.futbol.2001.HDRip.dexter_lex.avi
General
Complete name : D:Мои рипыUbojnyj.futbol.2001.HDRip.dexter_lex.avi
Format : AVI
Format/Info : Audio Video Interleave
File size : 1.46 GiB
Duration : 1h 52mn
Overall bit rate : 1 860 Kbps
Writing application : VirtualDubMod 1.5.10.3 | www.virtualdub-fr.org || (build 2550/release)
Writing library : VirtualDubMod build 2550/release
Video #0
ID : 0
Format : MPEG-4 Visual
Format profile : Advanced [email protected]
Format settings, BVOP : 1
Format settings, QPel : No
Format settings, GMC : No warppoints
Format settings, Matrix : Custom
Codec ID : XVID
Codec ID/Hint : XviD
Duration : 1h 52mn
Bit rate : 1 467 Kbps
Width : 688 pixels
Height : 384 pixels
Display aspect ratio : 16:9
Frame rate : 23.976 fps
Color space : YUV
Chroma subsampling : 4:2:0
Bit depth : 8 bits
Scan type : Progressive
Compression mode : Lossy
Bits/(Pixel*Frame) : 0.232
Stream size : 1.15 GiB (79%)
Writing library : XviD 73
Audio #1
ID : 1
Format : AC-3
Format/Info : Audio Coding 3
Mode extension : CM (complete main)
Codec ID : 2000
Duration : 1h 52mn
Bit rate mode : Constant
Bit rate : 384 Kbps
Channel(s) : 6 channels
Channel positions : Front: L C R, Side: L R, LFE
Sampling rate : 48.0 KHz
Bit depth : 16 bits
Compression mode : Lossy
Stream size : 309 MiB (21%)
Alignment : Split accross interleaves
Interleave, duration : 42 ms (1.00 video frame)
Interleave, preload duration : 500 ms
Яндекс.Метрика
Рейтинг@Mail.ru