Люди Икс: Дни минувшего будущего / X-Men: Days of Future Past. The Rogue Cut (2014) BDRip 720p | iTunes | Расширенная версия

 

Создавать темы 14-Июл-2015 18:07

Люди Икс: Дни минувшего будущего / X-Men: Days of Future Past. The Rogue CutГод выпуска: 2014
Жанр: Фантастика, фэнтези, боевик, приключения
Выпущено: США, 20th Century Fox Film Corporation, Bad Hat Harry Productions, Marvel Entertainment, Marv Films, Dune Entertainment
Режиссер: Брайан Сингер
В ролях:
Хью Джекман, Иэн МакКеллен, Патрик Стюарт, Холли Берри, Майкл Фассбендер, Джеймс МакЭвой, Анна Пакуин, Эллен Пейдж, Шон Эшмор, Дженнифер Лоуренс, Николас Холт, Питер Динклэйдж, Омар Си, Лукас Тилл, Бинбин Фань
О фильме:
Абсолютно новая, не показанная в кинотеатрах версия фильма «Люди Икс: Дни минувшего будущего» еще глубже погрузит вас во вселенную Людей Икс. Когда армия безжалостных роботов Стражей начинает охоту на мутантов и людей, непобедимые персонажи предыдущих фильмов «Люди Икс» переселяются в юных себя, пытаясь изменить прошлое – и спасти будущее.

Файл
Качество: BDRip (720p)
Видео: MPEG-4 AVC, 5600 Кбит/с, 1280x534
Аудио: Русский (AC3, 6 ch, 384 Кбит/с), английский (DTS-ES, 6 ch, 1510 Кбит/c), (AC3, 2 ch, 224 Кбит/с)
Размер: 8.25 ГБ
Продолжительность: 02:28:45
Перевод: Дублированный [iTunes]
Субтитры: Английские, Русские (отдельно), Русские Форсированные (отдельно)

MI

x264 [info]: frame I:2245  Avg QP:13.18  size:157865
x264 [info]: frame P:57489 Avg QP:16.01  size: 49342
x264 [info]: frame B:154269 Avg QP:17.27  size: 19814
x264 [info]: consecutive B-frames:  7.8%  4.7% 10.5% 16.3% 16.1% 33.8%  6.1%  1.6%  1.6%  1.6%
Общее
Уникальный идентификатор                 : 194394841762736686720386753082172826446 (0x923F15AD7DF16B2D8400A5EC18B2E34E)
Полное имя                               : C:X-Men Days of Future Past 2014 The Rogue Cut BDRip.720p_by_bog3417.mkv
Формат                                   : Matroska
Версия формата                           : Version 2
Размер файла                             : 8,25 Гбайт
Продолжительность                        : 2 ч. 28 м.
Общий поток                              : 7944 Кбит/сек
Дата кодирования                         : UTC 2015-07-13 19:59:37
Программа кодирования                    : mkvmerge v7.9.0 ('Birds') 64bit
Библиотека кодирования                   : libebml v1.3.1 + libmatroska v1.4.2
Видео
Идентификатор                            : 1
Формат                                   : AVC
Формат/Информация                        : Advanced Video Codec
Профиль формата                          : [email protected]
Параметр CABAC формата                   : Да
Параметр ReFrames формата                : 9 кадров
Идентификатор кодека                     : V_MPEG4/ISO/AVC
Продолжительность                        : 2 ч. 28 м.
Битрейт                                  : 5600 Кбит/сек
Ширина                                   : 1280 пикселей
Высота                                   : 534 пикселя
Соотношение сторон                       : 2,40:1
Режим частоты кадров                     : Постоянный
Частота кадров                           : 23,976 кадра/сек
Цветовое пространство                    : YUV
Субдискретизация насыщенности            : 4:2:0
Битовая глубина                          : 8 бит
Тип развёртки                            : Прогрессивная
Бит/(Пиксели*Кадры)                      : 0.342
Размер потока                            : 5,66 Гбайт (69%)
Библиотека кодирования                   : x264 core 146 r2538 121396c
Настройки программы                      : cabac=1 / ref=9 / deblock=1:-3:-3 / analyse=0x3:0x33 / me=umh / subme=11 / psy=1 / psy_rd=1.00:0.00 / mixed_ref=1 / me_range=48 / chroma_me=1 / trellis=2 / 8x8dct=1 / cqm=0 / deadzone=21,11 / fast_pskip=0 / chroma_qp_offset=-2 / threads=12 / lookahead_threads=2 / sliced_threads=0 / nr=0 / decimate=0 / interlaced=0 / bluray_compat=0 / constrained_intra=0 / bframes=9 / b_pyramid=2 / b_adapt=2 / b_bias=0 / direct=3 / weightb=1 / open_gop=0 / weightp=2 / keyint=240 / keyint_min=23 / scenecut=40 / intra_refresh=0 / rc=2pass / mbtree=0 / bitrate=5600 / ratetol=1.0 / qcomp=0.60 / qpmin=0 / qpmax=69 / qpstep=4 / cplxblur=20.0 / qblur=0.5 / ip_ratio=1.40 / pb_ratio=1.30 / aq=3:0.90
Язык                                     : English
Default                                  : Да
Forced                                   : Нет
Аудио #1
Идентификатор                            : 2
Формат                                   : AC-3
Формат/Информация                        : Audio Coding 3
Расширение режима                        : CM (complete main)
Параметр Endianness формата              : Big
Идентификатор кодека                     : A_AC3
Продолжительность                        : 2 ч. 28 м.
Вид битрейта                             : Постоянный
Битрейт                                  : 384 Кбит/сек
Каналы                                   : 6 каналов
Расположение каналов                     : Front: L C R, Side: L R, LFE
Частота                                  : 48,0 КГц
Метод сжатия                             : С потерями
Размер потока                            : 409 Мбайт (5%)
Заголовок                                : iTunes
Язык                                     : Russian
Default                                  : Да
Forced                                   : Нет
Аудио #2
Идентификатор                            : 3
Формат                                   : DTS
Формат/Информация                        : Digital Theater Systems
Профиль формата                          : ES
Режим                                    : 16
Параметр Endianness формата              : Big
Идентификатор кодека                     : A_DTS
Продолжительность                        : 2 ч. 28 м.
Вид битрейта                             : Постоянный
Битрейт                                  : 1509 Кбит/сек
Каналы                                   : 6 каналов
Расположение каналов                     : Front: L C R, Side: L R, LFE
Частота                                  : 48,0 КГц
Битовая глубина                          : 24 бит
Метод сжатия                             : С потерями
Размер потока                            : 1,57 Гбайт (19%)
Язык                                     : English
Default                                  : Нет
Forced                                   : Нет
Аудио #3
Идентификатор                            : 4
Формат                                   : AC-3
Формат/Информация                        : Audio Coding 3
Расширение режима                        : CM (complete main)
Параметр Endianness формата              : Big
Идентификатор кодека                     : A_AC3
Продолжительность                        : 2 ч. 28 м.
Вид битрейта                             : Постоянный
Битрейт                                  : 224 Кбит/сек
Каналы                                   : 2 канала
Расположение каналов                     : Front: L R
Частота                                  : 48,0 КГц
Метод сжатия                             : С потерями
Размер потока                            : 238 Мбайт (3%)
Язык                                     : English
Default                                  : Нет
Forced                                   : Нет
Аудио #4
Идентификатор                            : 5
Формат                                   : AC-3
Формат/Информация                        : Audio Coding 3
Расширение режима                        : CM (complete main)
Параметр Endianness формата              : Big
Идентификатор кодека                     : A_AC3
Продолжительность                        : 2 ч. 28 м.
Вид битрейта                             : Постоянный
Битрейт                                  : 224 Кбит/сек
Каналы                                   : 2 канала
Расположение каналов                     : Front: L R
Частота                                  : 48,0 КГц
Метод сжатия                             : С потерями
Размер потока                            : 238 Мбайт (3%)
Язык                                     : English
Default                                  : Нет
Forced                                   : Нет
Текст #1
Идентификатор                            : 6
Формат                                   : UTF-8
Идентификатор кодека                     : S_TEXT/UTF8
Идентификатор кодека/Информация          : UTF-8 Plain Text
Заголовок                                : Forced
Язык                                     : English
Default                                  : Да
Forced                                   : Нет
Текст #2
Идентификатор                            : 7
Формат                                   : UTF-8
Идентификатор кодека                     : S_TEXT/UTF8
Идентификатор кодека/Информация          : UTF-8 Plain Text
Заголовок                                : Full
Язык                                     : English
Default                                  : Нет
Forced                                   : Нет
Текст #3
Идентификатор                            : 8
Формат                                   : UTF-8
Идентификатор кодека                     : S_TEXT/UTF8
Идентификатор кодека/Информация          : UTF-8 Plain Text
Язык                                     : English
Default                                  : Нет
Forced                                   : Нет
Текст #4
Идентификатор                            : 9
Формат                                   : UTF-8
Идентификатор кодека                     : S_TEXT/UTF8
Идентификатор кодека/Информация          : UTF-8 Plain Text
Язык                                     : English
Default                                  : Нет
Forced                                   : Нет
Меню
00:00:00.000                             : en:00:00:00.000
00:03:33.338                             : en:00:03:33.338
00:08:04.734                             : en:00:08:04.734
00:10:34.217                             : en:00:10:34.217
00:15:11.410                             : en:00:15:11.410
00:18:44.248                             : en:00:18:44.248
00:22:43.529                             : en:00:22:43.529
00:24:38.769                             : en:00:24:38.769
00:29:05.619                             : en:00:29:05.619
00:33:03.440                             : en:00:33:03.440
00:37:11.896                             : en:00:37:11.896
00:38:49.827                             : en:00:38:49.827
00:41:06.923                             : en:00:41:06.923
00:43:50.336                             : en:00:43:50.336
00:50:05.377                             : en:00:50:05.377
00:52:07.082                             : en:00:52:07.082
00:55:11.391                             : en:00:55:11.391
00:57:56.348                             : en:00:57:56.348
01:01:04.661                             : en:01:01:04.661
01:04:01.421                             : en:01:04:01.421
01:06:39.829                             : en:01:06:39.829
01:10:22.802                             : en:01:10:22.802
01:13:00.459                             : en:01:13:00.459
01:16:28.334                             : en:01:16:28.334
01:18:48.724                             : en:01:18:48.724
01:20:44.590                             : en:01:20:44.590
01:22:46.962                             : en:01:22:46.962
01:28:07.574                             : en:01:28:07.574
01:31:19.057                             : en:01:31:19.057
01:33:50.958                             : en:01:33:50.958
01:39:22.373                             : en:01:39:22.373
01:42:10.291                             : en:01:42:10.291
01:44:32.016                             : en:01:44:32.016
01:49:13.547                             : en:01:49:13.547
01:51:00.862                             : en:01:51:00.862
01:54:54.304                             : en:01:54:54.304
01:59:15.940                             : en:01:59:15.940
02:02:13.743                             : en:02:02:13.743
02:04:30.504                             : en:02:04:30.504
02:08:16.230                             : en:02:08:16.230
02:13:27.583                             : en:02:13:27.583
02:16:57.250                             : en:02:16:57.250
02:19:19.809                             : en:02:19:19.809
02:27:34.011                             : en:02:27:34.011

Скриншоты:

Яндекс.Метрика
Рейтинг@Mail.ru