Во имя справедливости / Out for Justice (Джон Флинн)[1991,Боевик, триллер, драма, криминал, BDRip 720p] by msltel | D, P, P2, A

 

Создавать темы 11-Дек-2013 16:39

Название: Во имя справедливости
Оригинальное название: Out for Justice
Год выпуска: 1991
Жанр: Боевик, триллер, драма, криминал
Выпущено: США, Warner Bros. Pictures
Режиссер: Джон Флинн
В ролях: Стивен Сигал, Уильям Форсайт, Джерри Орбах, Джо Чампа, Шэрин Митчелл, Сэл Ричардс, Джина Гершон, Джей Аковоне, Ник Корелло, Роберт ЛаСардо, Джон Тоулс-Бей, Джо Спатаро, Рон Брумбилоу, Джэк Чиполла, Чик Дэниел, Джон Сенгер, Стив Тейлор, Джулиус Нассо мл., Дайан Петерсон, Эд Дику, Винсент Нассо, Джерри Стривелли, Джером Альварадо, Дэвид Басальто, Дэнни Иглоуиц, Фрэнк Фагилла Мл., Сэл Сирафино Томасетти, Джанни Руссо, Рональд Макконе, Алан Билор, Джордж Вальехо, Карл Киарфалио, Эдвард Корн, Бенедетто Бонджорно, Энтони ДеСандо, Доминик Кьянезе
О фильме: Место действия — Бруклин, время — наши дни. Полицейский Джино Фелино родился и вырос здесь. На его веку многое изменилось, но некоторые перемены он признавать не собирается. Товарищ по детским играм теперь — на другой стороне. Он превратил местные улицы в зоны боевых действий. Сильнее всего на свете Джино желал бы отправить этого сорвавшегося с цепи пса в школу вечного послушания. Но сначала его нужно поймать.
Качество: BDRip 720p
Размер: 5.31 ГБ
Продолжительность: 01:31:24
Видео: MPEG-4 AVC, 4760 Кбит/с, 1276x534
Аудио 1: русский, 48 kHz, AC3, 6 ch, 448 kbps avg, [Дублированный, Мост Видео]
Аудио 2: русский, 48 kHz, AC3, 2 ch, 192 kbps avg, [Профессиональный многоголосый, ТК "Россия"]
Аудио 3: русский, 48 kHz, AC3, 2 ch, 192 kbps avg, [Профессиональный двухголосый, НТВ]
Аудио 4: русский, 48 kHz, AC3, 6 ch, 384 kbps avg, [Авторский, Андрей Гаврилов]
Аудио 5: русский, 48 kHz, AC3, 2 ch, 192 kbps avg, [Авторский, Юрий Живов]
Аудио 6: русский, 48 kHz, AC3, 2 ch, 192 kbps avg, [Авторский, Алексей Михалёв]
Аудио 7: русский, 48 kHz, AC3, 6 ch, 384 kbps avg, [Авторский, Дмитирй Пучков - Гоблин, с ненормативной лексикой]
Внешние файлы
Аудио: русский, 48 kHz, AC3, 2 ch, 224 kbps avg, [Дублированный, Варус Видео]
Аудио: украинский, 48 kHz, AC3, 2 ch, 192 kbps avg, [Профессиональный многоголосый, ICTV]
Аудио: украинский, 48 kHz, AC3, 2 ch, 192 kbps avg, [Профессиональный многоголосый, Inter]
Аудио: русский, 48 kHz, AC3, 2 ch, 192 kbps avg, [Профессиональный двухголосый, Студия (1+1)]
Аудио: английский, 48 kHz, AC3, 6 ch, 640 kbps avg, [Оригинал]
Субтитры: русские
Субтитры: английские
Имеются поименованные главы/чаптеры.

MediaInfo + Лог х264

Общее
Полное имя : E:VideoVo.imja.spravedlivosti.1991.x264.BDRip.720pVo.imja.spravedlivosti.1991.DUB.rus.Варус видео.ac3
Формат : AC-3
Формат/Информация : Audio Coding 3
Размер файла : 146 Мбайт
Продолжительность : 1 ч. 31 м.
Режим общего битрейта : Постоянный
Общий поток : 224 Кбит/сек
Аудио
Формат : AC-3
Формат/Информация : Audio Coding 3
Расширение режима : CM (complete main)
Параметр Endianness формата : Big
Продолжительность : 1 ч. 31 м.
Вид битрейта : Постоянный
Битрейт : 224 Кбит/сек
Каналы : 2 канала
Расположение каналов : Front: L R
Частота : 48,0 КГц
Битовая глубина : 16 бит
Метод сжатия : С потерями
Размер потока : 146 Мбайт (100%)
Общее
Полное имя : E:VideoVo.imja.spravedlivosti.1991.x264.BDRip.720pVo.imja.spravedlivosti.1991.DVO.ukr.Студия (1+1).ac3
Формат : AC-3
Формат/Информация : Audio Coding 3
Размер файла : 126 Мбайт
Продолжительность : 1 ч. 31 м.
Режим общего битрейта : Постоянный
Общий поток : 192 Кбит/сек
Аудио
Формат : AC-3
Формат/Информация : Audio Coding 3
Расширение режима : CM (complete main)
Параметр Endianness формата : Big
Продолжительность : 1 ч. 31 м.
Вид битрейта : Постоянный
Битрейт : 192 Кбит/сек
Каналы : 2 канала
Расположение каналов : Front: L R
Частота : 48,0 КГц
Битовая глубина : 16 бит
Метод сжатия : С потерями
Размер потока : 126 Мбайт (100%)
Общее
Полное имя : E:VideoVo.imja.spravedlivosti.1991.x264.BDRip.720pVo.imja.spravedlivosti.1991.eng.srt
Формат : SubRip
Размер файла : 66,8 Кбайт
Текст
Формат : SubRip
Метод сжатия : Без потерь
Общее
Полное имя : E:VideoVo.imja.spravedlivosti.1991.x264.BDRip.720pVo.imja.spravedlivosti.1991.MVO.ukr.ICTV.ac3
Формат : AC-3
Формат/Информация : Audio Coding 3
Размер файла : 126 Мбайт
Продолжительность : 1 ч. 31 м.
Режим общего битрейта : Постоянный
Общий поток : 192 Кбит/сек
Аудио
Формат : AC-3
Формат/Информация : Audio Coding 3
Расширение режима : CM (complete main)
Параметр Endianness формата : Big
Продолжительность : 1 ч. 31 м.
Вид битрейта : Постоянный
Битрейт : 192 Кбит/сек
Каналы : 2 канала
Расположение каналов : Front: L R
Частота : 48,0 КГц
Битовая глубина : 16 бит
Метод сжатия : С потерями
Размер потока : 126 Мбайт (100%)
Общее
Полное имя : E:VideoVo.imja.spravedlivosti.1991.x264.BDRip.720pVo.imja.spravedlivosti.1991.MVO.ukr.Inter.ac3
Формат : AC-3
Формат/Информация : Audio Coding 3
Размер файла : 126 Мбайт
Продолжительность : 1 ч. 31 м.
Режим общего битрейта : Постоянный
Общий поток : 192 Кбит/сек
Аудио
Формат : AC-3
Формат/Информация : Audio Coding 3
Расширение режима : CM (complete main)
Параметр Endianness формата : Big
Продолжительность : 1 ч. 31 м.
Вид битрейта : Постоянный
Битрейт : 192 Кбит/сек
Каналы : 2 канала
Расположение каналов : Front: L R
Частота : 48,0 КГц
Битовая глубина : 16 бит
Метод сжатия : С потерями
Размер потока : 126 Мбайт (100%)
Общее
Полное имя : E:VideoVo.imja.spravedlivosti.1991.x264.BDRip.720pVo.imja.spravedlivosti.1991.Original.eng.ac3
Формат : AC-3
Формат/Информация : Audio Coding 3
Размер файла : 418 Мбайт
Продолжительность : 1 ч. 31 м.
Режим общего битрейта : Постоянный
Общий поток : 640 Кбит/сек
Аудио
Формат : AC-3
Формат/Информация : Audio Coding 3
Расширение режима : CM (complete main)
Параметр Endianness формата : Big
Продолжительность : 1 ч. 31 м.
Вид битрейта : Постоянный
Битрейт : 640 Кбит/сек
Каналы : 6 каналов
Расположение каналов : Front: L C R, Side: L R, LFE
Частота : 48,0 КГц
Битовая глубина : 16 бит
Метод сжатия : С потерями
Размер потока : 418 Мбайт (100%)
Общее
Полное имя : E:VideoVo.imja.spravedlivosti.1991.x264.BDRip.720pVo.imja.spravedlivosti.1991.rus.srt
Формат : SubRip
Размер файла : 82,1 Кбайт
Текст
Формат : SubRip
Метод сжатия : Без потерь
Общее
Уникальный идентификатор : 237803986076551901914158707972205149487 (0xB2E761BB8B51DDD78B310ED665777D2F)
Полное имя : E:VideoVo.imja.spravedlivosti.1991.x264.BDRip.720pVo.imja.spravedlivosti.1991.x264.BDRip.720p.mkv
Формат : Matroska
Версия формата : Version 4 / Version 2
Размер файла : 4,39 Гбайт
Продолжительность : 1 ч. 31 м.
Общий поток : 6881 Кбит/сек
Название фильма : Во имя справедливости / Out for Justice / 1991 / BDRip == STarankov
Дата кодирования : UTC 2013-12-10 10:39:58
Программа кодирования : mkvmerge v6.6.0 ('The Edge Of The In Between') built on Dec 1 2013 17:55:00
Библиотека кодирования : libebml v1.3.0 + libmatroska v1.4.1
Видео
Идентификатор : 1
Формат : AVC
Формат/Информация : Advanced Video Codec
Профиль формата : [email protected]
Параметр CABAC формата : Да
Параметр ReFrames формата : 12 кадров
Идентификатор кодека : V_MPEG4/ISO/AVC
Продолжительность : 1 ч. 31 м.
Битрейт : 4760 Кбит/сек
Ширина : 1276 пикселей
Высота : 534 пикселя
Соотношение сторон : 2,40:1
Режим частоты кадров : Постоянный
Частота кадров : 23,976 кадра/сек
Цветовое пространство : YUV
Субдискретизация насыщенности : 4:2:0
Битовая глубина : 8 бит
Тип развёртки : Прогрессивная
Бит/(Пиксели*Кадры) : 0.291
Размер потока : 3,04 Гбайт (69%)
Библиотека кодирования : x264 core 138 r2358 9e941d1
Настройки программы : cabac=1 / ref=12 / deblock=1:-3:-3 / analyse=0x3:0x113 / me=umh / subme=10 / psy=1 / psy_rd=1.00:0.15 / mixed_ref=1 / me_range=24 / chroma_me=1 / trellis=2 / 8x8dct=1 / cqm=0 / deadzone=21,11 / fast_pskip=0 / chroma_qp_offset=-3 / threads=6 / lookahead_threads=1 / sliced_threads=0 / nr=0 / decimate=1 / interlaced=0 / bluray_compat=0 / constrained_intra=0 / bframes=8 / b_pyramid=2 / b_adapt=2 / b_bias=0 / direct=1 / weightb=1 / open_gop=0 / weightp=2 / keyint=230 / keyint_min=23 / scenecut=40 / intra_refresh=0 / rc_lookahead=40 / rc=crf / mbtree=0 / crf=18.0 / qcomp=0.60 / qpmin=0 / qpmax=69 / qpstep=4 / vbv_maxrate=50000 / vbv_bufsize=62500 / crf_max=0.0 / nal_hrd=none / ip_ratio=1.40 / pb_ratio=1.30 / aq=1:1.00
Язык : English
Default : Да
Forced : Нет
Аудио #1
Идентификатор : 2
Формат : AC-3
Формат/Информация : Audio Coding 3
Расширение режима : CM (complete main)
Параметр Endianness формата : Big
Идентификатор кодека : A_AC3
Продолжительность : 1 ч. 31 м.
Вид битрейта : Постоянный
Битрейт : 448 Кбит/сек
Каналы : 6 каналов
Расположение каналов : Front: L C R, Side: L R, LFE
Частота : 48,0 КГц
Битовая глубина : 16 бит
Метод сжатия : С потерями
Размер потока : 293 Мбайт (7%)
Заголовок : DUB (Мост Видео)
Язык : Russian
Default : Да
Forced : Нет
Аудио #2
Идентификатор : 3
Формат : AC-3
Формат/Информация : Audio Coding 3
Расширение режима : CM (complete main)
Параметр Endianness формата : Big
Идентификатор кодека : A_AC3
Продолжительность : 1 ч. 31 м.
Вид битрейта : Постоянный
Битрейт : 192 Кбит/сек
Каналы : 2 канала
Расположение каналов : Front: L R
Частота : 48,0 КГц
Битовая глубина : 16 бит
Метод сжатия : С потерями
Размер потока : 126 Мбайт (3%)
Заголовок : MVO (ТК "Россия")
Язык : Russian
Default : Нет
Forced : Нет
Аудио #3
Идентификатор : 4
Формат : AC-3
Формат/Информация : Audio Coding 3
Профиль формата : Dolby Digital
Расширение режима : CM (complete main)
Параметр Endianness формата : Big
Идентификатор кодека : A_AC3
Продолжительность : 1 ч. 31 м.
Вид битрейта : Постоянный
Битрейт : 192 Кбит/сек
Каналы : 2 канала
Расположение каналов : Front: L R
Частота : 48,0 КГц
Битовая глубина : 16 бит
Метод сжатия : С потерями
Размер потока : 126 Мбайт (3%)
Заголовок : DVO (НТВ)
Язык : Russian
Default : Нет
Forced : Нет
Аудио #4
Идентификатор : 5
Формат : AC-3
Формат/Информация : Audio Coding 3
Расширение режима : CM (complete main)
Параметр Endianness формата : Big
Идентификатор кодека : A_AC3
Продолжительность : 1 ч. 31 м.
Вид битрейта : Постоянный
Битрейт : 384 Кбит/сек
Каналы : 6 каналов
Расположение каналов : Front: L C R, Side: L R, LFE
Частота : 48,0 КГц
Битовая глубина : 16 бит
Метод сжатия : С потерями
Размер потока : 251 Мбайт (6%)
Заголовок : AVO (Андрей Гаврилов)
Язык : Russian
Default : Нет
Forced : Нет
Аудио #5
Идентификатор : 6
Формат : AC-3
Формат/Информация : Audio Coding 3
Расширение режима : CM (complete main)
Параметр Endianness формата : Big
Идентификатор кодека : A_AC3
Продолжительность : 1 ч. 31 м.
Вид битрейта : Постоянный
Битрейт : 192 Кбит/сек
Каналы : 2 канала
Расположение каналов : Front: L R
Частота : 48,0 КГц
Битовая глубина : 16 бит
Метод сжатия : С потерями
Размер потока : 126 Мбайт (3%)
Заголовок : AVO (Юрий Живов)
Язык : Russian
Default : Нет
Forced : Нет
Аудио #6
Идентификатор : 7
Формат : AC-3
Формат/Информация : Audio Coding 3
Расширение режима : CM (complete main)
Параметр Endianness формата : Big
Идентификатор кодека : A_AC3
Продолжительность : 1 ч. 31 м.
Вид битрейта : Постоянный
Битрейт : 192 Кбит/сек
Каналы : 2 канала
Расположение каналов : Front: L R
Частота : 48,0 КГц
Битовая глубина : 16 бит
Метод сжатия : С потерями
Размер потока : 126 Мбайт (3%)
Заголовок : AVO (Алексей Михалёв)
Язык : Russian
Default : Нет
Forced : Нет
Аудио #7
Идентификатор : 8
Формат : AC-3
Формат/Информация : Audio Coding 3
Расширение режима : CM (complete main)
Параметр Endianness формата : Big
Идентификатор кодека : A_AC3
Продолжительность : 1 ч. 31 м.
Вид битрейта : Постоянный
Битрейт : 384 Кбит/сек
Каналы : 6 каналов
Расположение каналов : Front: L C R, Side: L R, LFE
Частота : 48,0 КГц
Битовая глубина : 16 бит
Метод сжатия : С потерями
Размер потока : 251 Мбайт (6%)
Заголовок : AVO (Дмитрий Пучков - Гоблин)
Язык : Russian
Default : Нет
Forced : Нет
Меню
00:00:00.000 : en:A Pimp's Comeuppance
00:03:39.802 : en:Tonight's Plans
00:07:18.020 : en:An Unmarked and a Shotgun
00:12:15.484 : en:The Mob Gets Mad
00:15:41.231 : en:Surprise Package (No Sleep Till Brooklyn)
00:19:04.017 : en:Hot Pursuit
00:21:40.716 : en:The Butcher Shop
00:24:09.823 : en:Buying Dog Food
00:27:15.550 : en:Mr. and Mrs. Madano
00:29:59.923 : en:Rica Says Yes
00:31:42.650 : en:Gino Plays Pool
00:38:11.122 : en:Neighborhood Montage (Shake the Firm)
00:41:41.040 : en:Breaking with Don Vittorio
00:45:00.656 : en:Patti's Place
00:51:23.121 : en:Chop-Shop Carnage
00:55:31.453 : en:A Truer Picture
00:56:48.321 : en:Memories with Vicky
01:02:18.484 : en:Gino's Place Under Siege
01:05:32.094 : en:More From Terry Malloy
01:08:03.621 : en:Poolroom Massacre
01:11:07.888 : en:"Ain't Pretty"
01:13:42.418 : en:Richie's Going-Away Party
01:17:30.145 : en:Gino Storms the House
01:22:31.196 : en:The Final Battle
01:25:35.130 : en:The "Animal-Lover's" Comeuppance
01:27:00.256 : en:End Credits (Don't Stand in My Way)
---[Information] [09.12.2013 17:39:37] avs [info]: 1276x534p 1:1 @ 24000/1001 fps (cfr)
---[Information] [09.12.2013 17:39:37] x264 [info]: using SAR=1/1
---[Information] [09.12.2013 17:39:37] x264 [info]: using cpu capabilities: MMX2 SSE2Fast SSSE3 SSE4.2
---[Information] [09.12.2013 17:39:37] x264 [info]: profile High, level 4.1
---[Information] [10.12.2013 2:38:11] x264 [info]: frame I:967 Avg QP:15.79 size: 89852
---[Information] [10.12.2013 2:38:11] x264 [info]: frame P:25812 Avg QP:16.70 size: 45665
---[Information] [10.12.2013 2:38:11] x264 [info]: frame B:104717 Avg QP:18.84 size: 19953
---[Information] [10.12.2013 2:38:11] x264 [info]: consecutive B-frames: 1.3% 1.4% 4.4% 15.0% 20.5% 42.5% 8.9% 4.5% 1.6%
---[Information] [10.12.2013 2:38:11] x264 [info]: mb I I16..4: 10.6% 75.3% 14.1%
---[Information] [10.12.2013 2:38:11] x264 [info]: mb P I16..4: 1.6% 31.7% 1.8% P16..4: 26.3% 23.1% 12.5% 0.0% 0.0% skip: 2.9%
---[Information] [10.12.2013 2:38:11] x264 [info]: mb B I16..4: 0.1% 3.4% 0.1% B16..8: 38.7% 17.9% 4.7% direct:11.8% skip:23.3% L0:45.1% L1:41.6% BI:13.4%
---[Information] [10.12.2013 2:38:11] x264 [info]: 8x8 transform intra:90.2% inter:49.4%
---[Information] [10.12.2013 2:38:11] x264 [info]: coded y,uvDC,uvAC intra: 96.0% 91.8% 76.5% inter: 40.8% 38.9% 8.5%
---[Information] [10.12.2013 2:38:11] x264 [info]: i16 v,h,dc,p: 17% 19% 20% 44%
---[Information] [10.12.2013 2:38:11] x264 [info]: i8 v,h,dc,ddl,ddr,vr,hd,vl,hu: 12% 10% 15% 8% 10% 11% 10% 11% 12%
---[Information] [10.12.2013 2:38:11] x264 [info]: i4 v,h,dc,ddl,ddr,vr,hd,vl,hu: 13% 12% 4% 9% 14% 14% 12% 11% 12%
---[Information] [10.12.2013 2:38:11] x264 [info]: i8c dc,h,v,p: 47% 22% 17% 13%
---[Information] [10.12.2013 2:38:11] x264 [info]: Weighted P-Frames: Y:3.8% UV:1.8%
---[Information] [10.12.2013 2:38:11] x264 [info]: ref P L0: 37.1% 8.1% 20.1% 7.5% 7.0% 4.6% 4.6% 2.5% 2.6% 1.9% 2.1% 1.7% 0.1% 0.0%
---[Information] [10.12.2013 2:38:11] x264 [info]: ref B L0: 67.8% 13.1% 6.1% 3.4% 2.5% 2.2% 1.7% 1.2% 1.0% 0.6% 0.3%
---[Information] [10.12.2013 2:38:11] x264 [info]: ref B L1: 92.0% 8.0%
---[Information] [10.12.2013 2:38:11] x264 [info]: kb/s:4893.74
---[Information] [10.12.2013 2:38:11] encoded 131496 frames, 4.07 fps, 4893.74 kb/s
--[Information] [10.12.2013 2:38:11] Final statistics
---[Information] [10.12.2013 2:38:11] Constant Quality Mode: Quality 18 computed...
---[Information] [10.12.2013 2:38:11] Video Bitrate Obtained (approximate): 4895 kbit/s
--[Information] [10.12.2013 2:38:11] MediaInfo
---[Information] File: E:RipVo.imja.spravedlivosti.1991.x264.BDRipVo.imja.spravedlivosti.1991.x264.BDRip.720p.mkv

Скриншоты

Яндекс.Метрика
Рейтинг@Mail.ru