[ Сегодня на трекере фрилич! Идет свободное скачивание без начисления Download ]

Белка и Стрелка: Лунные приключения (2013) BDRip-AVC | 60 fps

 

Создавать темы 06-Июл-2015 14:09

Белка и Стрелка: Лунные приключенияГод выпуска: 2013
Страна: Россия
Жанр: мультфильм, комедия, приключения, семейный
Продолжительность: 01:12:02
Перевод: Оригинал-Режиссер: Александр Храмцов, Инна Евланникова, Вадим Сотсков-В ролях: Нонна Гришаева (Белка, озвучка), Марьяна Спивак (Стрелка, озвучка), Евгений Миронов (Веня, озвучка), Тимур Родригез (Банан, озвучка), Сергей Гармаш (Казбек, озвучка), Лев Аксельрод (Пушок, озвучка), Илья Храмцов (Пушок, озвучка), Стася Кудякова (Фифи, озвучка), Алексей Колган (Кот, озвучка), Роман Квашнин (Заяц, озвучка), Данил Щебланов (Пудель, озвучка), Александр Гаврилин (Кот психиатр, озвучка)-Описание:
На Земле начали происходить странные и загадочные явления, несущие угрозу для планеты. Их след ведет в космос, на темную сторону Луны. Раскрыть тайну века поручили отряду Казбека. Белка, Стрелка и вся команда веселых и отважных героев отправляются на Луну, чтобы выполнить опасную миссию. Страсть к приключениям, искрометный юмор и великий дух космического братства поддержат в минуту великой опасности и помогут раскрыть всю правду о Луне и ее обитателях.--Качество: BDRip-AVC 60fps
Формат: MKV
Видео кодек: AVC
Аудио кодек:AC3
Видео: AVC, 1024x576 (16:9), 5326 kbps, 60 fps, 0,150 bpp
Аудио: AC3 / 5.1 / 48 kHz / 640 kbps / 16 bit-

MI

General
Unique ID : 172935502157170292309849041174627687647 (0x821A2A8C6CC58FAD8A8EC7C4D9911CDF)
Complete name : E:\Кодировка\Раздача\Белка и Стрелка - Лунные приключения.mkv
Format : Matroska
Format version : Version 4 / Version 2
File size : 3.00 GiB
Duration : 1h 12mn
Overall bit rate : 5 970 Kbps
Encoded date : UTC 2015-07-05 14:32:50
Writing application : mkvmerge v7.0.0 ('Where We Going') 64bit built on Jun 9 2014 15:16:27
Writing library : libebml v1.3.0 + libmatroska v1.4.1
DURATION : 01:12:02.912000000
NUMBER_OF_FRAMES : 135091
NUMBER_OF_BYTES : 345832960
_STATISTICS_WRITING_APP : mkvmerge v7.0.0 ('Where We Going') 64bit built on Jun 9 2014 15:16:27
_STATISTICS_WRITING_DATE_UTC : 2015-07-05 14:32:50
_STATISTICS_TAGS : BPS DURATION NUMBER_OF_FRAMES NUMBER_OF_BYTES
Video
ID : 1
Format : AVC
Format/Info : Advanced Video Codec
Format profile : [email protected]
Format settings, CABAC : Yes
Format settings, ReFrames : 9 frames
Codec ID : V_MPEG4/ISO/AVC
Duration : 1h 12mn
Bit rate : 5 326 Kbps
Width : 1 024 pixels
Height : 576 pixels
Display aspect ratio : 16:9
Frame rate : 60.000 fps
Color space : YUV
Chroma subsampling : 4:2:0
Bit depth : 8 bits
Scan type : Progressive
Bits/(Pixel*Frame) : 0.150
Stream size : 2.62 GiB (87%)
Writing library : x264 core 146 r2538 121396c
Encoding settings : cabac=1 / ref=9 / deblock=1:0:0 / analyse=0x3:0 / me=umh / subme=9 / psy=1 / psy_rd=1.00:0.10 / mixed_ref=1 / me_range=42 / chroma_me=0 / trellis=2 / 8x8dct=1 / cqm=0 / deadzone=21,11 / fast_pskip=0 / chroma_qp_offset=-3 / threads=12 / lookahead_threads=3 / sliced_threads=0 / nr=0 / decimate=0 / interlaced=0 / bluray_compat=0 / constrained_intra=0 / bframes=16 / b_pyramid=2 / b_adapt=2 / b_bias=0 / direct=3 / weightb=1 / open_gop=0 / weightp=2 / keyint=250 / keyint_min=25 / scenecut=40 / intra_refresh=0 / rc=2pass / mbtree=0 / bitrate=5326 / ratetol=1.0 / qcomp=0.60 / qpmin=0 / qpmax=69 / qpstep=4 / cplxblur=20.0 / qblur=0.5 / ip_ratio=1.40 / pb_ratio=1.30 / aq=1:0.90
Language : English
Default : Yes
Forced : No
DURATION : 01:12:02.967000000
NUMBER_OF_FRAMES : 259378
NUMBER_OF_BYTES : 2877827139
_STATISTICS_WRITING_APP : mkvmerge v7.0.0 ('Where We Going') 64bit built on Jun 9 2014 15:16:27
_STATISTICS_WRITING_DATE_UTC : 2015-07-05 14:32:50
_STATISTICS_TAGS : BPS DURATION NUMBER_OF_FRAMES NUMBER_OF_BYTES
Audio
ID : 2
Format : AC-3
Format/Info : Audio Coding 3
Mode extension : CM (complete main)
Codec ID : A_AC3
Duration : 1h 12mn
Bit rate mode : Constant
Bit rate : 640 Kbps
Channel(s) : 6 channels
Channel positions : Front: L C R, Side: L R, LFE
Sampling rate : 48.0 KHz
Bit depth : 16 bits
Compression mode : Lossy
Stream size : 330 MiB (11%)
Default : Yes
Forced : No

Скриншоты

Яндекс.Метрика
Рейтинг@Mail.ru