[ Сегодня на трекере фрилич! Идет свободное скачивание без начисления Download ]

(Классика в современной обработке) Paul Mauriat - Classics In the Air - 1985-1986 (2 Cd), APE (image+.cue), lossless

 

Создавать темы 03-Июл-2015 21:16

-Paul Mauriat - Classics In the Air- Жанр: Классика в современной обработке
Год выпуска диска: 1985-1986
Производитель диска: Франция
Аудио кодек: APE
Тип рипа: image+.cue
Битрейт аудио: lossless
Продолжительность: 1 час 21 минута
К раздаче прилагается отсканированная полиграфия и диски в 600 dpi-В 1965 году Поль Мориа создает свой Гранд оркестр, с которым долгие годы записывает инструментальные версии популярных песен, делает обработки классической музыки. В 1968 году его оркестровая версия песни-участницы конкурса Евровидение '1967 — L’amour est bleu (в дальнейшем именуемая Love is Blue) возглавила хит-парады США, а затем и во многих странах мира. Поль Мориа стал единственным французским исполнителем, добившимся такого признания в США.
Начиная с 1969 года оркестр Поля Мориа делает концертные туры в США и Канаде, Японии и Южной Корее, Бразилии и других странах Латинской Америки. Поль Мориа становится феноменом в Японии, ежегодно устраивая до 50 концертов.
В советское время музыка Поля Мориа часто звучала на радио и телевидении, в таких передачах как В мире животных (композиция Alouette), Кинопанорама (композиция Pardonne-moi ce caprice d’enfant), несколько композиций в прогнозе погоды (Yesterday, Abrazame и другие). С середины 1970-х по лицензии были изданы четыре его виниловые пластинки, разошедшиеся по стране миллионными тиражами. После встречи с бардом Сергеем Никитиным (1978) Поль Мориа создал великолепную инструментальную версию его песни Под музыку Вивальди. Помимо этого, ещё в 1965 году Поль Мориа записал пластинку с 12 русскими мелодиями Russie de toujours (Вечная Россия), переизданную во многих странах на компакт-диске под названием The Russian album.-

Треклист:

Classics In the Air (45:58)
01. Toccata and Fugue in Dm (Bach) (04:37)
02. Canon (Pachelbel) (03:44)
03. Symphony no.9 (Choral) (Beethoven) (04:04)
04. La Gazza Ladra (Overture) (Rossini) (04:31)
05. Liebestraum no.3 (Liszt) (04:16)
06. The Barber of Seville (Overture) (Rossini) (05:15)
07. La Traviata (Prelude) (Verdi) (02:17)
08. Prelude in C (Bach) (02:32)
09. Symphony no.40 (Minuet) (Mozart) (04:17)
10. Moonlight Sonata (Beethoven) (03:57)
11. Hungarian Dance no.5 (Brahms) (02:51)
12. Sonata "Pathetique" (Beethoven) (03:34)

Log EAC Classics In the Air

Exact Audio Copy V0.99 prebeta 4 from 23. January 2008
Отчёт EAC об извлечении, выполненном 14. декабря 2008, 17:57
Paul Mauriat / Classics In the Air
Дисковод: _NEC    DVD_RW ND-2500A   Adapter: 0  ID: 2
Режим чтения                 : Достоверность
Использование точного потока : Да
Отключение кэша аудио        : Да
Использование указателей C2  : Нет
Коррекция смещения при чтении                     : 48
Способность читать области Lead-in и Lead-out     : Нет
Заполнение пропущенных сэмплов тишиной            : Да
Удаление блоков с тишиной в начале и конце        : Нет
При вычислениях CRC использовались нулевые сэмплы : Да
Интерфейс                                         : Встроенный Win32-интерфейс для Win NT/2000
Выходной формат : Monkey's Audio Lossless Encoder v3.99 DLL
Формат сэмплов  : High Lossless Compression
TOC извлечённого CD
     Трек |   Старт  | Длительность | Начальный сектор | Конечный сектор
    ---------------------------------------------------------------------
       1  |  0:00.32 |    4:37.20   |          32      |      20826
       2  |  4:37.52 |    3:44.10   |       20827      |      37636
       3  |  8:21.62 |    4:04.18   |       37637      |      55954
       4  | 12:26.05 |    4:31.12   |       55955      |      76291
       5  | 16:57.17 |    4:15.58   |       76292      |      95474
       6  | 21:13.00 |    5:15.15   |       95475      |     119114
       7  | 26:28.15 |    2:17.20   |      119115      |     129409
       8  | 28:45.35 |    2:32.32   |      129410      |     140841
       9  | 31:17.67 |    4:17.28   |      140842      |     160144
      10  | 35:35.20 |    3:57.02   |      160145      |     177921
      11  | 39:32.22 |    2:51.40   |      177922      |     190786
      12  | 42:23.62 |    3:34.18   |      190787      |     206854
Характеристики диапазона извлечения и сообщения об ошибках
Выбранный диапазон
     Имя файла E:\torrent\my\Classics In the Air\Paul Mauriat - Classics In the Air.ape
     Пиковый уровень 83.1 %
     Качество диапазона 99.9 %
     CRC копии EF6AA73E
     Копирование... OK
Ошибок не произошло
Конец отчёта
Classics In the Air 2 (35:08)
01. Hungarian Rhapsody no. 2 (Liszt) (04:27)
02. Zaide (soloist: Danielle Licari) ( Mozart) (03:24)
03. Carmen (Habanera) (Bizet) (03:20)
04. Aria (Bach) (03:34)
05. Symphony no. 5 (Beethoven) (02:53)
06. Semiramide (overture) (Rossini) (04:28)
07. Canzona (Mozart) (02:21)
08. The Marriage Of Figaro (overture) (Mozart) (02:56)
09. Symphony no. 3 (Brahms) (03:18)
10. Barcarolle (Offenbach) (03:04)
11. Badinerie (Bach) (01:23)

Log EAC Classics In the Air 2

Exact Audio Copy V0.99 prebeta 4 from 23. January 2008
Отчёт EAC об извлечении, выполненном 13. декабря 2008, 23:04
Paul Mauriat / Classics In The Air 2
Дисковод: _NEC    DVD_RW ND-2500A   Adapter: 0  ID: 2
Режим чтения                 : Достоверность
Использование точного потока : Да
Отключение кэша аудио        : Да
Использование указателей C2  : Нет
Коррекция смещения при чтении                     : 48
Способность читать области Lead-in и Lead-out     : Нет
Заполнение пропущенных сэмплов тишиной            : Да
Удаление блоков с тишиной в начале и конце        : Нет
При вычислениях CRC использовались нулевые сэмплы : Да
Интерфейс                                         : Встроенный Win32-интерфейс для Win NT/2000
Выходной формат : Monkey's Audio Lossless Encoder v3.99 DLL
Формат сэмплов  : High Lossless Compression
TOC извлечённого CD
     Трек |   Старт  | Длительность | Начальный сектор | Конечный сектор
    ---------------------------------------------------------------------
       1  |  0:00.33 |    4:26.47   |          33      |      20029
       2  |  4:27.05 |    3:23.68   |       20030      |      35322
       3  |  7:50.73 |    3:19.72   |       35323      |      50319
       4  | 11:10.70 |    3:34.08   |       50320      |      66377
       5  | 14:45.03 |    2:52.62   |       66378      |      79339
       6  | 17:37.65 |    4:28.38   |       79340      |      99477
       7  | 22:06.28 |    2:20.65   |       99478      |     110042
       8  | 24:27.18 |    2:56.30   |      110043      |     123272
       9  | 27:23.48 |    3:17.47   |      123273      |     138094
      10  | 30:41.20 |    3:04.00   |      138095      |     151894
      11  | 33:45.20 |    1:23.30   |      151895      |     158149
Характеристики диапазона извлечения и сообщения об ошибках
Выбранный диапазон
     Имя файла E:\torrent\my\Classic Rock Violin\Paul Mauriat - Classics In The Air 2.ape
     Пиковый уровень 69.2 %
     Качество диапазона 99.9 %
     CRC копии 436794C1
     Копирование... OK
Ошибок не произошло
Конец отчёта

Создавать темы 03-Июл-2015 21:23 (спустя 6 минут)

СПАСИБО!
Яндекс.Метрика
Рейтинг@Mail.ru