Безумный Макс: Дорога ярости / Mad Max: Fury Road (Джордж Миллер / George Miller) [2015, Австралия, США, Фантастика, боевик, триллер, постапокалипсис, WEB-DL 720p] VO (Алексей Матвеев (Doctor Joker)) + Sub Rus + Original Eng

 

Создавать темы 28-Июн-2015 09:20

Безумный Макс: Дорога ярости / Mad Max: Fury Road
«What a lovely day / Какой чудесный день»
Страна: Австралия, США
Студия: Kennedy Miller Productions, Village Roadshow Pictures
Жанр: Фантастика, боевик, триллер, постапокалипсис
Год выпуска: 2015
Продолжительность: 02:00:21
Перевод: Одноголосый закадровый (Алексей Матвеев [Doctor Joker])
Cубтитры: русские, английские
Оригинальная аудиодорожка: английский
Режиссер: Джордж Миллер / George Miller
В ролях: Том Харди, Шарлиз Терон, Николас Холт, Хью Кияс-Бёрн, Джош Хелман, Нэйтан Джонс, Зои Кравиц, Роузи Хантингтон-Уайтли, Райли Кио, Эбби Ли, Кортни Итон, Джон Ховард, Ричард Картер, Иота, Энгус Сэмпсон, Дженнифер Хэйгэн, Меган Гэйл, Мелисса Яффер, Мелита Юришич, Джиллиан Джонс
Описание: Вскоре после отмщения за смерть жены и сына, Макс Рокатански покинул ряды «Основного силового патруля» и уехал в глушь, где скитается в одиночестве, пока мир медленно падает в последствии нефтяного кризиса и глобальной войны. Не имея ничего, кроме своей машины «Перехватчик», Максу предстоит научиться, как выжить в пост-апокалиптической пустоши и сражаться с жестокими, безжалостными воинами, которые населяют её.
Сэмпл: multi-up.com
Тип релиза: WEB-DL 720p
Контейнер: MKV
Видео: MPEG-4 AVC, 3910 Кбит/с, 1280x530, 0.240 бит/пиксель
Аудио #1: Русский (AC3, 6 ch, 384 Кбит/с) Алексей Матвеев [Doctor Joker]
Аудио #2: Английский (AC3, 6 ch, 384 Кбит/с)
Формат субтитров: softsub (SRT)

MediaInfo

General
Unique ID : 174962433034872186816342335897013669867 (0x83A089F4DB61A90D976E8A46065D4FEB)
Complete name : C:\Фильмы\Mad.Max.Fury.Road.2015.720p.WEB-DL.mkv
Format : Matroska
Format version : Version 4 / Version 2
File size : 4.01 GiB
Duration : 2h 0mn
Overall bit rate : 4 773 Kbps
Movie name : Mad.Max.Fury.Road.2015.720p.WEB-DL-byPB
Encoded date : UTC 2015-06-27 19:58:24
Writing application : mkvmerge v8.1.0 ('Psychedelic Postcard') 32bit
Writing library : libebml v1.3.1 + libmatroska v1.4.2
DURATION : 01:51:51.770000000
NUMBER_OF_FRAMES : 1124
NUMBER_OF_BYTES : 25101
_STATISTICS_WRITING_APP : mkvmerge v8.1.0 ('Psychedelic Postcard') 32bit
_STATISTICS_WRITING_DATE_UT : 2015-06-27 19:58:24
_STATISTICS_TAGS : BPS DURATION NUMBER_OF_FRAMES NUMBER_OF_BYTES
Video
ID : 1
Format : AVC
Format/Info : Advanced Video Codec
Format profile : [email protected]
Format settings, CABAC : No
Format settings, ReFrames : 2 frames
Codec ID : V_MPEG4/ISO/AVC
Duration : 2h 0mn
Bit rate : 3 910 Kbps
Width : 1 280 pixels
Height : 530 pixels
Display aspect ratio : 2.40:1
Frame rate mode : Constant
Frame rate : 23.976 fps
Color space : YUV
Chroma subsampling : 4:2:0
Bit depth : 8 bits
Scan type : Progressive
Bits/(Pixel*Frame) : 0.240
Stream size : 3.29 GiB (82%)
Language : English
Default : Yes
Forced : No
Color primaries : BT.709
Transfer characteristics : BT.709
Matrix coefficients : BT.709
Color range : Limited
Audio #1
ID : 2
Format : AC-3
Format/Info : Audio Coding 3
Mode extension : CM (complete main)
Format settings, Endianness : Big
Codec ID : A_AC3
Duration : 2h 0mn
Bit rate mode : Constant
Bit rate : 384 Kbps
Channel(s) : 6 channels
Channel positions : Front: L C R, Side: L R, LFE
Sampling rate : 48.0 KHz
Bit depth : 16 bits
Compression mode : Lossy
Stream size : 331 MiB (8%)
Title : Авторский одноголосый (А. Матвеев)
Language : Russian
Default : Yes
Forced : No
Audio #2
ID : 3
Format : AC-3
Format/Info : Audio Coding 3
Mode extension : CM (complete main)
Format settings, Endianness : Big
Codec ID : A_AC3
Duration : 2h 0mn
Bit rate mode : Constant
Bit rate : 384 Kbps
Channel(s) : 6 channels
Channel positions : Front: L C R, Side: L R, LFE
Sampling rate : 48.0 KHz
Bit depth : 16 bits
Compression mode : Lossy
Stream size : 331 MiB (8%)
Language : English
Default : No
Forced : No
Text #1
ID : 4
Format : UTF-8
Codec ID : S_TEXT/UTF8
Codec ID/Info : UTF-8 Plain Text
Title : Doctor_Joker
Language : Russian
Default : No
Forced : No
Text #2
ID : 5
Format : UTF-8
Codec ID : S_TEXT/UTF8
Codec ID/Info : UTF-8 Plain Text
Language : English
Default : No
Forced : No
Menu
00:00:00.000 : en:1
00:10:42.000 : en:2
00:19:06.000 : en:3
00:30:13.000 : en:4
00:42:55.000 : en:5
00:49:33.000 : en:6
00:59:55.000 : en:7
01:13:02.000 : en:8
01:22:08.000 : en:9
01:30:02.000 : en:10
01:40:39.000 : en:11
01:49:12.000 : en:12
01:53:05.000 : en:13

Скриншоты

Яндекс.Метрика
Рейтинг@Mail.ru