[ Сегодня на трекере фрилич! Идет свободное скачивание без начисления Download ]

Почетный консул / The Honorary Consul (Джон Маккензи)[1983,Триллер, DVDRip] от NovaLan | A

 

Создавать темы 10-Дек-2013 06:14

Страна: Великобритания
Производство: Parsons & Whittemore Lyddon Ltd, World Film Services
Жанр: Триллер
Год выпуска: 1983
Продолжительность: 01:39:30
Перевод: Авторский (одноголосый закадровый)(Кашкин)
Оригинальная аудиодорожка: Fyukbqcrfz
Режиссер: Джон Маккензи
В ролях: Ричард Гир, Элпидия Каррилло, Майкл Кейн, Эрик Ф. Валдез, Боб Хоскинс, Хоаким де Альмейда, Эй Мартинез, Доминго Амбрис, Николас Джассо, Джеффри Палмер, Леонард Магвайр, Хорке Руссек, Жозефина Эчанове, Джордж Беланжер

Описание: Доктор Эдуардо Пларр практикует в Буэнос-Айресе, а хотел бы в парагвайских областях. Его отец - политический заключённый в Парагвае. Доктор ждёт вестей от своего отца, и наконец-то Леон, старый друг доктора, связывается с его отцом. Леон раньше был священником, но оставил церковь. Сейчас он работает в парагвайской подземке. Леон пытается вызнать у Пларра, когда состоится визит посла США в Парагвай. У Леона есть свой план для освобождения политических заключённых из парагвайских тюрем, в том числе и отца Эдуардо Пларра. План прост - захватить посла и обменять его на заключённых. Источником для информации у Пларра является бывший алкоголик Чарли Фортнум, а сейчас британский советник. Жена Чарли Клара - любовница доктора Пларра. Похищение посла идёт не совсем гладко, и своим предательством Пларр ставит под угрозу жизнь Чарли.
Исходник: DVD9 R2
Тип релиза: DVDRip
Контейнер: AVI
Видео: 720x400 (1.80:1), 23.976 fps, XviD ~1708 kbps avg, 0.25 bit/pixel
Аудио: #1: 48 kHz, AC3 2.0 ~192.00 kbps avg (RUS)
Аудио: #2: 48 kHz, AC3 2.0 ~192.00 kbps avg (ENG)

MediaInfo

Общее
Полное имя : D:1АААПочетный консул.avi
Формат : AVI
Формат/Информация : Audio Video Interleave
Размер файла : 1,46 Гбайт
Продолжительность : 1 ч. 39 м.
Общий поток : 2107 Кбит/сек
Программа кодирования : VirtualDubMod 1.5.10.2 (build 2540/release)
Библиотека кодирования : VirtualDubMod build 2540/release
Видео
Идентификатор : 0
Формат : MPEG-4 Visual
Профиль формата : Advanced [email protected]
Параметр BVOP формата : 2
Параметр QPel формата : Нет
Параметр GMC формата : Без точки перехода
Параметр матрицы формата : Default (MPEG)
Режим смешивания : Сжатый битовый поток
Идентификатор кодека : XVID
Идентификатор кодека/Подсказка : XviD
Продолжительность : 1 ч. 39 м.
Битрейт : 1709 Кбит/сек
Ширина : 720 пикселей
Высота : 400 пикселей
Соотношение сторон : 16:9
Частота кадров : 23,976 кадра/сек
Цветовое пространство : YUV
Субдискретизация насыщенности : 4:2:0
Битовая глубина : 8 бит
Тип развёртки : Прогрессивная
Метод сжатия : С потерями
Бит/(Пиксели*Кадры) : 0.247
Размер потока : 1,19 Гбайт (81%)
Библиотека кодирования : XviD 1.2.1 (UTC 2008-12-04)
Аудио #1
Идентификатор : 1
Формат : AC-3
Формат/Информация : Audio Coding 3
Расширение режима : CM (complete main)
Параметр Endianness формата : Big
Идентификатор кодека : 2000
Продолжительность : 1 ч. 39 м.
Вид битрейта : Постоянный
Битрейт : 192 Кбит/сек
Каналы : 2 канала
Расположение каналов : Front: L R
Частота : 48,0 КГц
Битовая глубина : 16 бит
Метод сжатия : С потерями
Размер потока : 137 Мбайт (9%)
Выравнивание : Разделение по промежуткам
Продолжительность промежутка : 42 мс. (1,00 видеокадр)
Время предзагрузки промежутка : 500 мс.
Аудио #2
Идентификатор : 2
Формат : AC-3
Формат/Информация : Audio Coding 3
Расширение режима : CM (complete main)
Параметр Endianness формата : Big
Идентификатор кодека : 2000
Продолжительность : 1 ч. 39 м.
Вид битрейта : Постоянный
Битрейт : 192 Кбит/сек
Каналы : 2 канала
Расположение каналов : Front: L R
Частота : 48,0 КГц
Битовая глубина : 16 бит
Метод сжатия : С потерями
Размер потока : 137 Мбайт (9%)
Выравнивание : Разделение по промежуткам
Продолжительность промежутка : 42 мс. (1,00 видеокадр)
Время предзагрузки промежутка : 500 мс.

Скриншоты

Релиз группа:
Яндекс.Метрика
Рейтинг@Mail.ru