[ Сегодня на трекере фрилич! Идет свободное скачивание без начисления Download ]

Французский поцелуй / French Kiss (Лоуренс Кэздан )[1995,драма, мелодрама, комедия, BDRip-AVC] от Rulya74

 

Создавать темы 10-Дек-2013 06:07

Французский поцелуй / French Kiss (1995) BDRip-AVC
Информация о фильме
Название: Французский поцелуй
Оригинальное название: French Kiss
Год выхода: 1995
Жанр: драма, мелодрама, комедия
Режиссер: Лоуренс Кэздан
В ролях: Мег Райан, Кевин Клайн, Тимоти Хаттон, Жан Рено, Франсуа Клюзе, Рени Хамфри, Майкл Райли, Элизабет Коммелин, Сюзен Анбе, Лорен Шпильфогель, Виктор Гарривье, Микель Браун, Луиз Дешам, Клаудио Тодесчини, Джерри Харт, Джоэнна Павлис, Барбара Шульц, Клеман Сибони, Адам Брукс...
О фильме: Чарли уезжает в Париж на конференцию, а его невеста не летит с ним из-за страха перед самолетами. Через несколько дней он звонит ей и сообщает, что полюбил другую. Кейт сразу же прыгает в самолет, и страх ей помогает преодолеть грубоватый француз — Люк, оказавшийся вором и контрабандистом, положившим в ее сумочку дорогое ожерелье, чтобы избежать трудностей на таможне. В итоге Кейт и Люк влюбляются друг в друга…

Страна: Великобритания, США
Продолжительность: 01:51:13
Перевод: Профессиональный (многоголосый закадровый) | ОРТ
Файл
Кодек: x.264
Качество: BDRip-AVC
Видео: 1024x432 (2,40:1), 23.976 fps, 1677 kbps, 0.158 bit/pixel
Звук: 48 kHz, AC3 Dolby Digital, 2 ch, ~192.00 kbps

MediaInfo

Общее
Уникальный идентификатор : 220679585836307797892166535458244947419 (0xA605579D8BC988C9AF199F8F3AC26DDB)
Полное имя : D:TorrentFrench Kiss.1995.BDRip-AVC.mkv
Формат : Matroska
Версия формата : Version 4 / Version 2
Размер файла : 1,45 Гбайт
Продолжительность : 1 ч. 51 м.
Общий поток : 1870 Кбит/сек
Название фильма : Французский поцелуй / French Kiss (1995) BDRip-AVC rip by Rulya74
Дата кодирования : UTC 2013-12-08 21:19:06
Программа кодирования : mkvmerge v6.5.0 ('Isn't she lovely') built on Oct 20 2013 12:50:05
Библиотека кодирования : libebml v1.3.0 + libmatroska v1.4.1
Видео
Идентификатор : 1
Формат : AVC
Формат/Информация : Advanced Video Codec
Профиль формата : [email protected]
Параметр CABAC формата : Да
Параметр ReFrames формата : 8 кадров
Идентификатор кодека : V_MPEG4/ISO/AVC
Продолжительность : 1 ч. 51 м.
Битрейт : 1677 Кбит/сек
Ширина : 1024 пикселя
Высота : 432 пикселя
Соотношение сторон : 2,40:1
Режим частоты кадров : Постоянный
Частота кадров : 23,976 кадра/сек
Цветовое пространство : YUV
Субдискретизация насыщенности : 4:2:0
Битовая глубина : 8 бит
Тип развёртки : Прогрессивная
Бит/(Пиксели*Кадры) : 0.158
Размер потока : 1,27 Гбайт (88%)
Библиотека кодирования : x264 core 130 r2273 b3065e6
Настройки программы : cabac=1 / ref=8 / deblock=1:-1:-1 / analyse=0x1:0 / me=umh / subme=11 / psy=1 / psy_rd=1.10:0.30 / mixed_ref=1 / me_range=48 / chroma_me=1 / trellis=2 / 8x8dct=0 / cqm=0 / deadzone=21,11 / fast_pskip=0 / chroma_qp_offset=-4 / threads=4 / lookahead_threads=1 / sliced_threads=0 / nr=0 / decimate=1 / interlaced=0 / bluray_compat=0 / constrained_intra=0 / bframes=4 / b_pyramid=2 / b_adapt=2 / b_bias=0 / direct=3 / weightb=1 / open_gop=0 / weightp=2 / keyint=250 / keyint_min=23 / scenecut=40 / intra_refresh=0 / rc_lookahead=50 / rc=2pass / mbtree=1 / bitrate=1677 / ratetol=1.0 / qcomp=0.60 / qpmin=10 / qpmax=69 / qpstep=4 / cplxblur=20.0 / qblur=0.5 / ip_ratio=1.40 / aq=1:1.00
Default : Да
Forced : Нет
Аудио
Идентификатор : 2
Формат : AC-3
Формат/Информация : Audio Coding 3
Расширение режима : CM (complete main)
Параметр Endianness формата : Big
Идентификатор кодека : A_AC3
Продолжительность : 1 ч. 51 м.
Вид битрейта : Постоянный
Битрейт : 192 Кбит/сек
Каналы : 2 канала
Расположение каналов : Front: L R
Частота : 48,0 КГц
Битовая глубина : 16 бит
Метод сжатия : С потерями
Размер потока : 153 Мбайт (10%)
Заголовок : Профессиональный (многоголосый закадровый) | ОРТ
Язык : Russian
Default : Да
Forced : Нет

Скриншоты

Яндекс.Метрика
Рейтинг@Mail.ru