[ Сегодня на трекере фрилич! Идет свободное скачивание без начисления Download ]

На игле / Trainspotting (Дэнни Бойл / Danny Boyle) [1996, Великобритания, драма, комедия, криминал, BDRip 1080p] 3x MVO (CP Digital, Тивионика, ОРТ) + VO (Чадов) + 2x AVO (Кашкин, Алексеев) + Sub Rus, Eng + Original Eng

 

Создавать темы 25-Июн-2015 17:16

--На игле / Trainspotting-- Страна: Великобритания
Студия: Channel Four Films
Жанр: Драма, комедия, криминал
Год выпуска: 1996
Продолжительность: 01:33:50
Перевод №1: Профессиональный (многоголосый закадровый) CP Digital
Перевод №2: Профессиональный (многоголосый закадровый) Тивионика
Перевод №3: Профессиональный (многоголосый закадровый) ОРТ
Перевод №4: Одноголосый закадровый Чадов Алексей
Перевод №5: Авторский (одноголосый закадровый) Кашкин Александр
Перевод №6: Авторский (одноголосый закадровый) Алексеев Антон
Cубтитры: русские, английские
Оригинальная аудиодорожка: английский
Режиссер: Дэнни Бойл / Danny Boyle
В ролях: Эван МакГрегор, Юэн Бремнер, Джонни Ли Миллер, Кевин МакКидд, Роберт Карлайл, Келли Макдоналд, Питер Муллан, Джеймс Космо, Айлин Николас, Сьюзэн Видлер, Полин Линч, Ширли Хендерсон, Стюарт МакКуорри, Ирвин Уэлш, Дэйл Уинтон, Кит Аллен, Кевин Аллен, Энни Луиз Росс, Билли Риддоч, Фиона Белл
Описание: Выбирай жизнь. Выбирай работу. Выбирай карьеру. Выбирай семью. Выбирай большие телевизоры, стиральные машины, автомобили, компакт-диск плэйеры, электрические консервные ножи. Выбирай хорошее здоровье, низкий уровень холестерина и стоматологическую страховку.
Выбирай недвижимость и аккуратно выплачивай взносы. Выбери свой первый дом. Выбирай своих друзей. Выбери себе курорт и шикарные чемоданы. Выбери костюм-тройку лучшей фирмы из самого дорогого материала. Выбери набор «Сделай сам», чтобы было чем заняться воскресным утром.
Выбери удобный диван, чтобы развалиться на нем и смотреть отупляющее шоу. Набивай свое брюхо всякой всячиной. Выбери загнивание в конце всего и вспомни со стыдом напоследок своих дружков-подонков, которых ты заложил чтобы выкарабкаться. Выбирай будущее. Выбирай жизнь.
Но зачем мне все это? Я не стал выбирать жизнь… Я выбрал кое-что другое… Почему? Да потому… Какие могут быть почему, когда ты под кайфом? Когда есть героин…
Сэмпл: Скачать
Тип релиза: BDRip 1080p (SbR)
Контейнер: MKV
Видео: 1920x1080, 23.976 fps, x264 ~20000 kbps
Аудио 1: Русский DTS 5.1, 48 kHz, 1509 kbps |CP Digital|
Аудио 2: Русский AC3 5.1, 48 kHz, 384 kbps |Тивионика|
Аудио 3: Русский AC3 2.0, 48 kHz, 192 kbps |ОРТ|
Аудио 4: Русский DTS 5.1, 48 kHz, 768 kbps |Чадов|
Аудио 5: Русский AC3 2.0, 48 kHz, 192 kbps |Кашкин|
Аудио 6: Русский AC3 2.0, 48 kHz, 192 kbps |Алексеев|
Аудио 7: Английский DTS 5.1, 48 kHz, 1509 kbps
Формат субтитров: softsub (SRT)

MediaInfo

General
Unique ID : 226874122166148991999251581292037681778 (0xAAAE5DD621A18EA1B87CB2AB30A63272)
Complete name : G:\Trainspotting.1996.1080p.BluRay.6xRus.Eng-SbR.mkv
Format : Matroska
Format version : Version 4 / Version 2
File size : 16.3 GiB
Duration : 1h 33mn
Overall bit rate : 24.9 Mbps
Movie name : Trainspotting (1996) - Release by SbR
Encoded date : UTC 2015-06-24 08:29:57
Writing application : mkvmerge v8.0.0 ('Til The Day That I Die') 64bit
Writing library : libebml v1.3.1 + libmatroska v1.4.2
Attachements : cover.jpg / xlog.txt
Video
ID : 1
Format : AVC
Format/Info : Advanced Video Codec
Format profile : [email protected]
Format settings, CABAC : Yes
Format settings, ReFrames : 4 frames
Codec ID : V_MPEG4/ISO/AVC
Duration : 1h 33mn
Bit rate : 20.0 Mbps
Width : 1 920 pixels
Height : 1 080 pixels
Display aspect ratio : 16:9
Frame rate mode : Constant
Frame rate : 23.976 fps
Color space : YUV
Chroma subsampling : 4:2:0
Bit depth : 8 bits
Scan type : Progressive
Bits/(Pixel*Frame) : 0.402
Stream size : 12.8 GiB (78%)
Writing library : x264 core 146 r2538kMod 121396c
Encoding settings : cabac=1 / ref=4 / deblock=1:-2:-2 / analyse=0x3:0x133 / me=umh / subme=11 / psy=1 / fade_compensate=0.00 / psy_rd=1.00:0.00 / mixed_ref=1 / me_range=32 / chroma_me=1 / trellis=2 / 8x8dct=1 / cqm=0 / deadzone=21,11 / fast_pskip=0 / chroma_qp_offset=-2 / threads=12 / lookahead_threads=2 / sliced_threads=0 / nr=0 / decimate=1 / interlaced=0 / bluray_compat=0 / constrained_intra=0 / fgo=0 / bframes=8 / b_pyramid=2 / b_adapt=2 / b_bias=0 / direct=3 / weightb=1 / open_gop=0 / weightp=2 / keyint=250 / keyint_min=23 / scenecut=40 / intra_refresh=0 / rc_lookahead=60 / rc=2pass / mbtree=0 / bitrate=20000 / ratetol=1.0 / qcomp=0.80 / qpmin=0 / qpmax=69 / qpstep=4 / cplxblur=20.0 / qblur=0.5 / vbv_maxrate=62500 / vbv_bufsize=78125 / nal_hrd=none / filler=0 / ip_ratio=1.40 / pb_ratio=1.30 / aq=1:0.80
Language : English
Default : Yes
Forced : No
Color range : Limited
Color primaries : BT.709
Transfer characteristics : BT.709
Matrix coefficients : BT.709
Audio #1
ID : 2
Format : DTS
Format/Info : Digital Theater Systems
Mode : 16
Format settings, Endianness : Big
Codec ID : A_DTS
Duration : 1h 33mn
Bit rate mode : Constant
Bit rate : 1 509 Kbps
Channel(s) : 6 channels
Channel positions : Front: L C R, Side: L R, LFE
Sampling rate : 48.0 KHz
Bit depth : 24 bits
Compression mode : Lossy
Stream size : 1 013 MiB (6%)
Title : MVO, CP Digital
Language : Russian
Default : No
Forced : No
Audio #2
ID : 3
Format : AC-3
Format/Info : Audio Coding 3
Mode extension : CM (complete main)
Format settings, Endianness : Big
Codec ID : A_AC3
Duration : 1h 33mn
Bit rate mode : Constant
Bit rate : 384 Kbps
Channel(s) : 6 channels
Channel positions : Front: L C R, Side: L R, LFE
Sampling rate : 48.0 KHz
Compression mode : Lossy
Stream size : 258 MiB (2%)
Title : MVO, Тивионика
Language : Russian
Default : Yes
Forced : No
Audio #3
ID : 4
Format : AC-3
Format/Info : Audio Coding 3
Mode extension : CM (complete main)
Format settings, Endianness : Big
Codec ID : A_AC3
Duration : 1h 33mn
Bit rate mode : Constant
Bit rate : 192 Kbps
Channel(s) : 2 channels
Channel positions : Front: L R
Sampling rate : 48.0 KHz
Compression mode : Lossy
Stream size : 129 MiB (1%)
Title : MVO, ОРТ
Language : Russian
Default : No
Forced : No
Audio #4
ID : 5
Format : DTS
Format/Info : Digital Theater Systems
Mode : 16
Format settings, Endianness : Big
Codec ID : A_DTS
Duration : 1h 33mn
Bit rate mode : Constant
Bit rate : 768 Kbps
Channel(s) : 6 channels
Channel positions : Front: L C R, Side: L R, LFE
Sampling rate : 48.0 KHz
Bit depth : 24 bits
Compression mode : Lossy
Stream size : 516 MiB (3%)
Title : Чадов
Language : Russian
Default : No
Forced : No
Audio #5
ID : 6
Format : AC-3
Format/Info : Audio Coding 3
Mode extension : CM (complete main)
Format settings, Endianness : Big
Codec ID : A_AC3
Duration : 1h 33mn
Bit rate mode : Constant
Bit rate : 192 Kbps
Channel(s) : 2 channels
Channel positions : Front: L R
Sampling rate : 48.0 KHz
Compression mode : Lossy
Stream size : 129 MiB (1%)
Title : Кашкин
Language : Russian
Default : No
Forced : No
Audio #6
ID : 7
Format : AC-3
Format/Info : Audio Coding 3
Mode extension : CM (complete main)
Format settings, Endianness : Big
Codec ID : A_AC3
Duration : 1h 33mn
Bit rate mode : Constant
Bit rate : 192 Kbps
Channel(s) : 2 channels
Channel positions : Front: L R
Sampling rate : 48.0 KHz
Compression mode : Lossy
Stream size : 129 MiB (1%)
Title : Алексеев
Language : Russian
Default : No
Forced : No
Audio #7
ID : 8
Format : DTS
Format/Info : Digital Theater Systems
Mode : 16
Format settings, Endianness : Big
Codec ID : A_DTS
Duration : 1h 33mn
Bit rate mode : Constant
Bit rate : 1 509 Kbps
Channel(s) : 6 channels
Channel positions : Front: L C R, Side: L R, LFE
Sampling rate : 48.0 KHz
Bit depth : 16 bits
Compression mode : Lossy
Stream size : 1 013 MiB (6%)
Language : English
Default : No
Forced : No
Audio #8
ID : 9
Format : AC-3
Format/Info : Audio Coding 3
Format profile : Dolby Digital
Mode extension : CM (complete main)
Format settings, Endianness : Big
Codec ID : A_AC3
Duration : 1h 33mn
Bit rate mode : Constant
Bit rate : 192 Kbps
Channel(s) : 2 channels
Channel positions : Front: L R
Sampling rate : 48.0 KHz
Compression mode : Lossy
Stream size : 129 MiB (1%)
Title : Commentary
Language : English
Default : No
Forced : No
Text #1
ID : 10
Format : UTF-8
Codec ID : S_TEXT/UTF8
Codec ID/Info : UTF-8 Plain Text
Language : Russian
Default : No
Forced : No
Text #2
ID : 11
Format : UTF-8
Codec ID : S_TEXT/UTF8
Codec ID/Info : UTF-8 Plain Text
Language : Russian
Default : No
Forced : No
Text #3
ID : 12
Format : UTF-8
Codec ID : S_TEXT/UTF8
Codec ID/Info : UTF-8 Plain Text
Title : Svin
Language : Russian
Default : No
Forced : No
Menu
00:00:00.000 : en:Choose Life
00:06:13.998 : en:The Sick Boy Method
00:11:31.816 : en:The Worst Toilet in Scotland
00:16:22.272 : en:Do You See the Beast
00:20:14.296 : en:Begbie's Story
00:23:42.170 : en:It's Me or Iggy Pop
00:28:28.957 : en:He Scores!
00:34:05.501 : en:The Morning After
00:38:48.409 : en:Back on Heroin
00:42:13.906 : en:No Theory to Explain a Moment Like This
00:49:58.120 : en:A Visit to the Mother Superior
00:56:38.812 : en:Cold Turkey
01:01:13.753 : en:Aids Junky Scum
01:08:31.398 : en:A New Start
01:13:27.194 : en:It's A Pity No-One Told Begbie
01:18:02.678 : en:A Funeral
01:25:54.607 : en:Two Keys of Skagg
01:30:41.602 : en:Begbie Loses It Again

xlog

raw [info]: 1920x1080p 1:1 @ 24000/1001 fps (cfr)
x264 [info]: using SAR=1/1
x264 [info]: using cpu capabilities: MMX2 SSE2Fast SSSE3 SSE4.2 AVX
x264 [info]: profile High, level 4.1
x264 [info]: frame I:877 Avg QP:16.67 size:333936
x264 [info]: frame P:28828 Avg QP:18.52 size:171562
x264 [info]: frame B:105302 Avg QP:21.20 size: 83732
x264 [info]: consecutive B-frames: 2.0% 2.9% 4.0% 29.6% 14.2% 21.7% 9.2% 15.7% 0.8%
x264 [info]: mb I I16..4: 1.3% 89.2% 9.5%
x264 [info]: mb P I16..4: 0.3% 32.6% 0.6% P16..4: 21.5% 30.3% 13.1% 1.3% 0.0% skip: 0.4%
x264 [info]: mb B I16..4: 0.0% 3.8% 0.0% B16..8: 50.1% 21.5% 5.6% direct: 8.7% skip:10.2% L0:46.4% L1:42.6% BI:11.0%
x264 [info]: 8x8 transform intra:97.1% inter:70.5%
x264 [info]: direct mvs spatial:96.4% temporal:3.6%
x264 [info]: coded y,uvDC,uvAC intra: 98.4% 77.9% 36.9% inter: 62.9% 37.3% 1.2%
x264 [info]: i16 v,h,dc,p: 40% 18% 11% 31%
x264 [info]: i8 v,h,dc,ddl,ddr,vr,hd,vl,hu: 8% 5% 16% 11% 13% 12% 11% 11% 12%
x264 [info]: i4 v,h,dc,ddl,ddr,vr,hd,vl,hu: 14% 8% 5% 9% 15% 14% 13% 11% 12%
x264 [info]: i8c dc,h,v,p: 30% 34% 22% 14%
x264 [info]: Weighted P-Frames: Y:10.3% UV:2.4%
x264 [info]: ref P L0: 47.9% 11.2% 25.3% 13.5% 1.9% 0.1%
x264 [info]: ref B L0: 89.3% 8.3% 2.4%
x264 [info]: ref B L1: 93.5% 6.5%
x264 [info]: kb/s:19969.42
encoded 135007 frames, 3.16 fps, 19969.42 kb/s, duration 11:52:20.74

Скриншоты

Яндекс.Метрика
Рейтинг@Mail.ru