[ Сегодня на трекере фрилич! Идет свободное скачивание без начисления Download ]

Мания величия / La folie des grandeurs (Жерар Ури)[1971, комедия, BDRip 720p] | P

 

Создавать темы 10-Дек-2013 06:02

Информация о фильме
Название: Мания величия
Оригинальное название: La folie des grandeurs
Год выхода: 1971
Жанр: комедия
Режиссер: Жерар Ури
В ролях: Луи де Фюнес, Ив Монтан, Алис Саприч, Карин Шуберт, Альберто де Мендоса, Дон Хайме де Мора-и-Арагон, Эдуардо Фахардо, Антонио Пика, Хоакин Солис, Венантино Венантини
Описание: Луи Де Фюнес в роли жадного сборщика налогов, обворовывающего короля. Его слугу Рюи Блаза играет Ив Монтан. Разбитной веселый мошенник постоянно издевается над хозяином и строит ему козни.
Так он использует неописуемую алчность и жажду лести человека, считающего, что «бедные должны быть бедными, а богатые должны стать еще богаче», и подбивает Де Фюнеса соблазнить испанскую королеву, на которую сам положил глаз…

Страна: Франция, Испания, Италия, Германия (ФРГ)
Продолжительность: 01:49:06
Перевод #1: Профессиональный (Многоголосый, Закадровый) (ТК) (TВ Центр)
Перевод #2: Профессиональный (Многоголосый, Закадровый) (R5) (DVD Magic)
Перевод #3: Профессиональный (Многоголосый, Закадровый) (ОРТ)
Перевод #4: Французский (Оригинал)
Файл
Формат: MKV
Качество: BDRip 720p (Источник: Blu-ray Remux)
Видео: 1280x688 (1.85:1), 24.000 fps, 4965 kbps, 0.235 bit/pixel
Аудио #1: AC-3, 2 ch, 192 kbps (Многоголосый TВ Центр)
Аудио #2: AC-3, 2 ch, 192 kbps (Многоголосый DVD Magic)
Аудио #3: AC-3, 2 ch, 192 kbps (Многоголосый ОРТ)
Аудио #4: AC-3, 2 ch, 192 kbps (Французский Оригинал)
Субтитры: Русские (Полные)
Скачать: Семпл

Скриншоты

MediaInfo

General
Unique ID : 211405494278128331483534039783344316578 (0x9F0B37995BE9C7C8BCD3A22418B620A2)
Complete name : La.folie.des.grandeurs.1971.BDRip.720p.mkv
Format : Matroska
Format version : Version 2
File size : 4.37 GiB
Duration : 1h 49mn
Overall bit rate : 5 736 Kbps
Encoded date : UTC 2013-12-08 22:21:50
Writing application : mkvmerge v5.6.0 ('Kenya Kane') built on May 27 2012 16:44:04
Writing library : libebml v1.2.3 + libmatroska v1.3.0
Video
ID : 1
Format : AVC
Format/Info : Advanced Video Codec
Format profile : [email protected]
Format settings, CABAC : Yes
Format settings, ReFrames : 8 frames
Codec ID : V_MPEG4/ISO/AVC
Duration : 1h 49mn
Bit rate : 4 965 Kbps
Width : 1 280 pixels
Height : 688 pixels
Display aspect ratio : 1.85:1
Frame rate mode : Constant
Frame rate : 24.000 fps
Color space : YUV
Chroma subsampling : 4:2:0
Bit depth : 8 bits
Scan type : Progressive
Bits/(Pixel*Frame) : 0.235
Stream size : 3.70 GiB (85%)
Title : Мания величия / La folie des grandeurs (1971)
Writing library : x264 core 130 r2273 b3065e6
Encoding settings : cabac=1 / ref=8 / deblock=1:-3:-3 / analyse=0x3:0x113 / me=umh / subme=11 / psy=1 / psy_rd=1.00:0.00 / mixed_ref=1 / me_range=32 / chroma_me=1 / trellis=2 / 8x8dct=1 / cqm=0 / deadzone=21,11 / fast_pskip=1 / chroma_qp_offset=-2 / threads=6 / lookahead_threads=1 / sliced_threads=0 / nr=0 / decimate=1 / interlaced=0 / bluray_compat=0 / constrained_intra=0 / bframes=6 / b_pyramid=2 / b_adapt=2 / b_bias=0 / direct=3 / weightb=1 / open_gop=0 / weightp=2 / keyint=240 / keyint_min=24 / scenecut=40 / intra_refresh=0 / rc=2pass / mbtree=0 / bitrate=4965 / ratetol=1.0 / qcomp=0.60 / qpmin=0 / qpmax=69 / qpstep=4 / cplxblur=20.0 / qblur=0.5 / ip_ratio=1.40 / pb_ratio=1.30 / aq=1:1.00
Language : English
Default : Yes
Forced : No
Color primaries : BT.709
Transfer characteristics : BT.709
Matrix coefficients : BT.709
Audio #1
ID : 2
Format : AC-3
Format/Info : Audio Coding 3
Mode extension : CM (complete main)
Format settings, Endianness : Big
Codec ID : A_AC3
Duration : 1h 49mn
Bit rate mode : Constant
Bit rate : 192 Kbps
Channel(s) : 2 channels
Channel positions : Front: L R
Sampling rate : 48.0 KHz
Bit depth : 16 bits
Compression mode : Lossy
Stream size : 150 MiB (3%)
Title : Многоголосый 2.0 (ТК) (TВ Центр)
Language : Russian
Default : Yes
Forced : No
Audio #2
ID : 3
Format : AC-3
Format/Info : Audio Coding 3
Mode extension : CM (complete main)
Format settings, Endianness : Big
Codec ID : A_AC3
Duration : 1h 49mn
Bit rate mode : Constant
Bit rate : 192 Kbps
Channel(s) : 2 channels
Channel positions : Front: L R
Sampling rate : 48.0 KHz
Bit depth : 16 bits
Compression mode : Lossy
Stream size : 150 MiB (3%)
Title : Многоголосый 2.0 (R5) (DVD Magic)
Language : Russian
Default : No
Forced : No
Audio #3
ID : 4
Format : AC-3
Format/Info : Audio Coding 3
Mode extension : CM (complete main)
Format settings, Endianness : Big
Codec ID : A_AC3
Duration : 1h 49mn
Bit rate mode : Constant
Bit rate : 192 Kbps
Channel(s) : 2 channels
Channel positions : Front: L R
Sampling rate : 48.0 KHz
Bit depth : 16 bits
Compression mode : Lossy
Stream size : 150 MiB (3%)
Title : Многоголосый 2.0 (ОРТ)
Language : Russian
Default : No
Forced : No
Audio #4
ID : 5
Format : AC-3
Format/Info : Audio Coding 3
Mode extension : CM (complete main)
Format settings, Endianness : Big
Codec ID : A_AC3
Duration : 1h 49mn
Bit rate mode : Constant
Bit rate : 192 Kbps
Channel(s) : 2 channels
Channel positions : Front: L R
Sampling rate : 48.0 KHz
Bit depth : 16 bits
Compression mode : Lossy
Stream size : 150 MiB (3%)
Title : Французский 2.0 (Оригинал)
Language : French
Default : No
Forced : No
Text
ID : 6
Format : UTF-8
Codec ID : S_TEXT/UTF8
Codec ID/Info : UTF-8 Plain Text
Title : Русские (Полные)
Language : Russian
Default : No
Forced : No
Яндекс.Метрика
Рейтинг@Mail.ru