[ Сегодня на трекере фрилич! Идет свободное скачивание без начисления Download ]

Чайф - 30 лет. Рожденный в Свердловске [2CD] (2015) FLAC

 

Создавать темы 24-Июн-2015 18:28

-Чайф - 30 лет. Рожденный в Свердловске [2CD]- Год: 2015
Жанр: Рок
Продолжительность: 01:53:28
Формат/Кодек: FLAC
Битрейт аудио: lossless

Трек-лист

CD1:
01. Город мой
02. Вольный ветер
03. Время не ждёт
04. Камарека
05. Кончается век
06. Точка
07. Псы с городских окраин
08. Ой-йо
09. Рок - мой выбор
10. Матаня
11. Но это так
12. Белая ворона
13. Дом вверх дном
14. Кто-то хитрый

Отчёт ЕАС:

Exact Audio Copy V1.0 beta 3 from 29. August 2011
Отчёт EAC об извлечении, выполненном 21. июня 2015, 14:10
Чайф / 30 лет. Рожденный в Свердловске (CD1)
Дисковод: ASUS    DRW-24F1ST   a   Adapter: 2  ID: 0
Режим чтения                 : Достоверность
Использование точного потока : Да
Отключение кэша аудио        : Да
Использование указателей C2  : Нет
Коррекция смещения при чтении                     : 6
Способность читать области Lead-in и Lead-out     : Нет
Заполнение пропущенных сэмплов тишиной            : Да
Удаление блоков с тишиной в начале и конце        : Нет
При вычислениях CRC использовались нулевые сэмплы : Да
Интерфейс                                         : Встроенный Win32-интерфейс для Win NT/2000
Выходной формат : Внутренние WAV-операции
Формат сэмплов  : 44.100 Гц; 16 бит; стерео
TOC извлечённого CD
     Трек |   Старт  | Длительность | Начальный сектор | Конечный сектор
    ---------------------------------------------------------------------
       1  |  0:00.00 |    4:16.56   |           0      |      19255
       2  |  4:16.56 |    3:37.00   |       19256      |      35530
       3  |  7:53.56 |    4:43.21   |       35531      |      56776
       4  | 12:37.02 |    3:08.33   |       56777      |      70909
       5  | 15:45.35 |    4:52.35   |       70910      |      92844
       6  | 20:37.70 |    3:49.23   |       92845      |     110042
       7  | 24:27.18 |    4:39.54   |      110043      |     131021
       8  | 29:06.72 |    4:25.60   |      131022      |     150956
       9  | 33:32.57 |    3:27.38   |      150957      |     166519
      10  | 37:00.20 |    3:13.35   |      166520      |     181029
      11  | 40:13.55 |    5:29.19   |      181030      |     205723
      12  | 45:42.74 |    2:58.37   |      205724      |     219110
      13  | 48:41.36 |    2:33.60   |      219111      |     230645
      14  | 51:15.21 |    2:39.39   |      230646      |     242609
Характеристики диапазона извлечения и сообщения об ошибках
Выбранный диапазон
     Имя файла X:\Temps\Чайф - 30 лет. Рожденный в Свердловске (CD1).wav
     Пиковый уровень 98.8 %
     Скорость извлечения 3.2 X
     Качество диапазона 100.0 %
     CRC теста BC4A6801
     CRC копии BC4A6801
     Копирование... OK
Ошибок не произошло
AccurateRip: сводка
Трек  1  отсутствует в базе данных
Трек  2  отсутствует в базе данных
Трек  3  отсутствует в базе данных
Трек  4  отсутствует в базе данных
Трек  5  отсутствует в базе данных
Трек  6  отсутствует в базе данных
Трек  7  отсутствует в базе данных
Трек  8  отсутствует в базе данных
Трек  9  отсутствует в базе данных
Трек 10  отсутствует в базе данных
Трек 11  отсутствует в базе данных
Трек 12  отсутствует в базе данных
Трек 13  отсутствует в базе данных
Трек 14  отсутствует в базе данных
Ни одного трека нет в базе AccurateRip
Конец отчёта
==== Контрольная сумма отчёта 8AFF5E193EE35EBFB2C071DFD304CCC17C84217392E24FDCA18FBE0EDBABBB77 ====
CD2:
01. Для себя, для него, для меня
02. Поменялся
03. Не доводи до предела
04. За годом год
05. Аргентина - Ямайка - 5:0
06. В её глазах
07. Внеплановый концерт
08. 17 лет
09. Шаляй-Валяй
10. Небесный диджей
11. Не дай мне повод
12. Рок-н-ролл этой ночи
13. Оранжевое настроение
14. Поплачь о нём

Отчёт ЕАС:

Exact Audio Copy V1.0 beta 3 from 29. August 2011
Отчёт EAC об извлечении, выполненном 21. июня 2015, 15:59
Чайф / 30 лет. Рожденный в Свердловске (CD2)
Дисковод: ASUS    DRW-24F1ST   a   Adapter: 2  ID: 0
Режим чтения                 : Достоверность
Использование точного потока : Да
Отключение кэша аудио        : Да
Использование указателей C2  : Нет
Коррекция смещения при чтении                     : 6
Способность читать области Lead-in и Lead-out     : Нет
Заполнение пропущенных сэмплов тишиной            : Да
Удаление блоков с тишиной в начале и конце        : Нет
При вычислениях CRC использовались нулевые сэмплы : Да
Интерфейс                                         : Встроенный Win32-интерфейс для Win NT/2000
Выходной формат : Внутренние WAV-операции
Формат сэмплов  : 44.100 Гц; 16 бит; стерео
TOC извлечённого CD
     Трек |   Старт  | Длительность | Начальный сектор | Конечный сектор
    ---------------------------------------------------------------------
       1  |  0:00.00 |    4:24.37   |           0      |      19836
       2  |  4:24.37 |    4:27.48   |       19837      |      39909
       3  |  8:52.10 |    3:57.39   |       39910      |      57723
       4  | 12:49.49 |    3:23.02   |       57724      |      72950
       5  | 16:12.51 |    3:18.51   |       72951      |      87851
       6  | 19:31.27 |    4:23.59   |       87852      |     107635
       7  | 23:55.11 |    7:07.71   |      107636      |     139731
       8  | 31:03.07 |    4:29.38   |      139732      |     159944
       9  | 35:32.45 |    2:56.01   |      159945      |     173145
      10  | 38:28.46 |    4:23.18   |      173146      |     192888
      11  | 42:51.64 |    3:26.22   |      192889      |     208360
      12  | 46:18.11 |    3:10.60   |      208361      |     222670
      13  | 49:28.71 |    3:50.38   |      222671      |     239958
      14  | 53:19.34 |    6:15.38   |      239959      |     268121
Характеристики диапазона извлечения и сообщения об ошибках
Выбранный диапазон
     Имя файла X:\Temps\Чайф - 30 лет. Рожденный в Свердловске (CD2).wav
     Пиковый уровень 98.8 %
     Скорость извлечения 3.2 X
     Качество диапазона 99.9 %
     CRC теста 44CC0456
     CRC копии 44CC0456
     Копирование... OK
Ошибок не произошло
AccurateRip: сводка
Трек  1  отсутствует в базе данных
Трек  2  отсутствует в базе данных
Трек  3  отсутствует в базе данных
Трек  4  отсутствует в базе данных
Трек  5  отсутствует в базе данных
Трек  6  отсутствует в базе данных
Трек  7  отсутствует в базе данных
Трек  8  отсутствует в базе данных
Трек  9  отсутствует в базе данных
Трек 10  отсутствует в базе данных
Трек 11  отсутствует в базе данных
Трек 12  отсутствует в базе данных
Трек 13  отсутствует в базе данных
Трек 14  отсутствует в базе данных
Ни одного трека нет в базе AccurateRip
Конец отчёта
==== Контрольная сумма отчёта D406DCB1DDDEBDD07A2A261AEEEBDD199D8FB001A6AF4D2B801F78C4B270A99F ====
О музыке: Коллектив одной из популярнейших российских рок-групп — ЧайФ — в этом году отмечает 30-летний юбилей со дня основания. Это событие команда отметит гастрольным туром «ЧайФ. Рожденный в Свердловске». Перед началом гастролей ЧайФ выпустили юбилейный альбом «Рожденный в Свердловске». В него вошли два компакт-диска с песнями, представляющими собой ретроспективу творчества группы, буклет с фотографиями участников, кто играл в ней в разные периоды. Пластинка продается только на концертах юбилейного тура.
Яндекс.Метрика
Рейтинг@Mail.ru