Виктор Королёв - Лучшие песни (2014) FLAC

 

Создавать темы 24-Июн-2015 18:02

-Виктор Королёв - Лучшие песни- Год: 2014
Жанр: Шансон
Издатель (лейбл): ВИГМА
Номер по каталогу: 3138
Продолжительность: 01:15:26
Формат/Кодек: FLAC
Битрейт аудио: Lossless

Трек-лист

01. "Пьяная вишня (Музыка и слова Г. Енин)"
02. "Красная рябина (В. Королёв - В. Королёв)"
03. "Девчонка рыжая (Ю. Алмазов - Б. Бостон)"
04. "Я не буду ждать тебя (Музыка и слова народные, обработка Ю. Алмазов - Б. Бостон)"
05. "За твою красивую улыбку (Музыка и слова С. Паради)"
06. "Васильковое платье (С. Фисун - В. Королёв)"
07. "А помнишь ( С. Фисун, В. Королёв - В. Богатырёв)"
08. "Душа (В. Королёв - В. Королёв)"
09. "Подарю тебе розы (В. Королёв - В. Королёв, Р. Верба)"
10. "Опер (Музыка и слова В. Клименков) "
11. "Красивые слова (С. Фисун - В. Королёв)"
12. "Дым кольцами (Музыка и слова Г. Енин)"
13. "Качает небо золотые купола (Музыка и слова С. Паради)"
14. "Ах, какие слова (В. Кызылов - С. Паради)"
15. "Букет из белых роз (С. Паради - С. Паради)"
16. "С днём рождения, друг ! (В. Богатырёв - В. Богатырёв)"
17. "Уходят в море корабли (Ю. Алмазов - Б. Бостон)"
18. "За тебя, родная ! (В. Королёв - В. Королёв)"
19. "Расцвела черёмуха (В. Королёв - В. Королёв)"

Отчёт EAC

Exact Audio Copy V1.0 beta 2 from 29. April 2011
Отчёт EAC об извлечении, выполненном 25. ноября 2014, 14:52
Виктор Королёв / Лучшие песни
Дисковод: TSSTcorpBDDVDW SE-506BB   Adapter: 1  ID: 0
Режим чтения                 : Достоверность
Использование точного потока : Да
Отключение кэша аудио        : Да
Использование указателей C2  : Нет
Коррекция смещения при чтении                     : 6
Способность читать области Lead-in и Lead-out     : Нет
Заполнение пропущенных сэмплов тишиной            : Да
Удаление блоков с тишиной в начале и конце        : Нет
При вычислениях CRC использовались нулевые сэмплы : Да
Интерфейс                                         : Встроенный Win32-интерфейс для Win NT/2000
Выходной формат : Внутренние WAV-операции
Формат сэмплов  : 44.100 Гц; 16 бит; стерео
TOC извлечённого CD
     Трек |   Старт  | Длительность | Начальный сектор | Конечный сектор
    ---------------------------------------------------------------------
       1  |  0:00.00 |    5:02.05   |           0      |      22654
       2  |  5:02.05 |    4:00.15   |       22655      |      40669
       3  |  9:02.20 |    3:18.21   |       40670      |      55540
       4  | 12:20.41 |    4:14.43   |       55541      |      74633
       5  | 16:35.09 |    4:01.60   |       74634      |      92768
       6  | 20:36.69 |    3:24.55   |       92769      |     108123
       7  | 24:01.49 |    4:28.02   |      108124      |     128225
       8  | 28:29.51 |    3:35.60   |      128226      |     144410
       9  | 32:05.36 |    4:07.37   |      144411      |     162972
      10  | 36:12.73 |    3:30.46   |      162973      |     178768
      11  | 39:43.44 |    3:22.17   |      178769      |     193935
      12  | 43:05.61 |    4:18.37   |      193936      |     213322
      13  | 47:24.23 |    4:08.72   |      213323      |     231994
      14  | 51:33.20 |    4:15.25   |      231995      |     251144
      15  | 55:48.45 |    4:06.36   |      251145      |     269630
      16  | 59:55.06 |    3:43.48   |      269631      |     286403
      17  | 63:38.54 |    3:00.72   |      286404      |     299975
      18  | 66:39.51 |    5:06.00   |      299976      |     322925
      19  | 71:45.51 |    3:40.57   |      322926      |     339482
Характеристики диапазона извлечения и сообщения об ошибках
Выбранный диапазон
     Имя файла S:\ШАНСОН\КОРОЛЁВ ВИКТОР © [Дискография]\2014 - Виктор Королев - Лучшие песни\Виктор Королёв - Лучшие песни.wav
     Пиковый уровень 100.0 %
     Скорость извлечения 2.2 X
     Качество диапазона 100.0 %
     CRC теста C5C94368
     CRC копии C5C94368
     Копирование... OK
Ошибок не произошло
AccurateRip: сводка
Трек  1  отсутствует в базе данных
Трек  2  отсутствует в базе данных
Трек  3  отсутствует в базе данных
Трек  4  отсутствует в базе данных
Трек  5  отсутствует в базе данных
Трек  6  отсутствует в базе данных
Трек  7  отсутствует в базе данных
Трек  8  отсутствует в базе данных
Трек  9  отсутствует в базе данных
Трек 10  отсутствует в базе данных
Трек 11  отсутствует в базе данных
Трек 12  отсутствует в базе данных
Трек 13  отсутствует в базе данных
Трек 14  отсутствует в базе данных
Трек 15  отсутствует в базе данных
Трек 16  отсутствует в базе данных
Трек 17  отсутствует в базе данных
Трек 18  отсутствует в базе данных
Трек 19  отсутствует в базе данных
Ни одного трека нет в базе AccurateRip
Конец отчёта
==== Контрольная сумма отчёта 81A9A0AC697C30E1804A9B760F999643EE2D3CA4A7387BC440EB05D6859B438D ====
Яндекс.Метрика
Рейтинг@Mail.ru