Безумный Макс: Дорога ярости / Mad Max: Fury Road (2015) WEB-DL 720p | Матвеев

 

Создавать темы 24-Июн-2015 10:12

Безумный Макс: Дорога ярости / Mad Max: Fury RoadГод выхода: 2015
Жанр: фантастика, боевик, триллер, приключения
Режиссер: Джордж Миллер
В ролях: Том Харди, Шарлиз Терон, Николас Холт, Хью Кияс-Бёрн, Джош Хелман, Нэйтан Джонс, Зои Кравиц, Роузи Хантингтон-Уайтли, Райли Кио, Эбби Ли
О фильме: Вскоре после отмщения за смерть жены и сына, Макс Рокатански покинул ряды «Основного силового патруля» и уехал в глушь, где скитается в одиночестве, пока мир медленно падает впоследствии нефтяного кризиса и глобальной войны. Не имея ничего, кроме своей машины «Перехватчик», Максу предстоит научиться, как выжить в пост-апокалиптической пустоши и сражаться с жестокими, безжалостными воинами, которые населяют её.

Выпущено: Австралия, США / Kennedy Miller Productions, Village Roadshow Pictures
Продолжительность: 02:00:21
Озвучивание: Авторское (одноголосое) [Алексей Матвеев ака Doctor Joker]
Файл
Формат: MKV
Качество: WEB-DL 720p
Видео: 3918 kb/s, 1280x530
Аудио: AC3, 384 kb/s (6 ch)

MI

Format                         : Matroska
Format version                 : Version 4 / Version 2
File size                      : 3.69 GiB
Duration                       : 2h 0mn
Overall bit rate               : 4 389 Kbps
Encoded date                   : UTC 2015-06-23 14:12:30
Writing application            : mkvmerge v6.1.0 ('Old Devil') built on Mar  4 2013 09:10:42
Writing library                : libebml v1.3.0 + libmatroska v1.4.0
Video
ID                             : 1
Format                         : AVC
Format/Info                    : Advanced Video Codec
Format profile                 : [email protected]
Format settings, CABAC         : No
Format settings, ReFrames      : 2 frames
Codec ID                       : V_MPEG4/ISO/AVC
Duration                       : 2h 0mn
Bit rate                       : 3 918 Kbps
Width                          : 1 280 pixels
Height                         : 530 pixels
Display aspect ratio           : 2.40:1
Frame rate mode                : Constant
Frame rate                     : 23.976 fps
Color space                    : YUV
Chroma subsampling             : 4:2:0
Bit depth                      : 8 bits
Scan type                      : Progressive
Bits/(Pixel*Frame)             : 0.241
Stream size                    : 3.29 GiB (89%)
Language                       : English
Default                        : Yes
Forced                         : No
Color range                    : Limited
Color primaries                : BT.709
Transfer characteristics       : BT.709
Matrix coefficients            : BT.709
Audio
ID                             : 2
Format                         : AC-3
Format/Info                    : Audio Coding 3
Mode extension                 : CM (complete main)
Format settings, Endianness    : Big
Codec ID                       : A_AC3
Duration                       : 2h 0mn
Bit rate mode                  : Constant
Bit rate                       : 384 Kbps
Channel(s)                     : 6 channels
Channel positions              : Front: L C R, Side: L R, LFE
Sampling rate                  : 48.0 KHz
Bit depth                      : 16 bits
Compression mode               : Lossy
Stream size                    : 331 MiB (9%)
Title                          : Алексей Матвеев ака Doctor Joker
Language                       : Russian
Default                        : Yes
Forced                         : No
Menu
00:00:00.000                   : en:1
00:10:42.000                   : en:2
00:19:06.000                   : en:3
00:30:13.000                   : en:4
00:42:55.000                   : en:5
00:49:33.000                   : en:6
00:59:55.000                   : en:7
01:13:02.000                   : en:8
01:22:08.000                   : en:9
01:30:02.000                   : en:10
01:40:39.000                   : en:11
01:49:12.000                   : en:12
01:53:05.000                   : en:13

Скриншоты:

Яндекс.Метрика
Рейтинг@Mail.ru