[ Сегодня на трекере фрилич! Идет свободное скачивание без начисления Download ]

Однажды (2015) WEB-DL 720p | iTunes

 

Создавать темы 22-Июн-2015 16:58

Однажды
Год выхода: 2015
Жанр: комедии, приключения
Режиссёр: Ренат Давлетьяров
Актёры: Дарья Мельникова, Юрий Дейнекин, Никита Калинин (II), Александр Мельников (IV), Михаил Тройник, Полина Муравьева, Сергей Гармаш, Кристина Бабушкина, Андрей Мерзликин, Станислав Говорухин, Алена Каримская, Фархат Абдраимов, Елизавета Боярская, Дмитрий Астрахан, Артур Мухамадияров, Сергей Тишин
О фильме: Однажды Лешка понял, что влюблен. В бывшую девушку брата. Ему еще не было и 16-ти, а ей уже исполнилось 17. Она носила очень короткую юбку и ходила гулять с ребятами из другого района. Впереди у Лешки был последний звонок, последний год жизни в городке и первое серьезное испытание. Он согласился с Таней на пари: проигравший обязан исполнить любое желание победителя…

Страна: Россия / Реал-Дакота
Продолжительность: 01:41:06
Озвучивание: Оригинал [iTunes]
Файл
Формат: MKV
Качество: WEB-DL 720p
Видео: 3978 kb/s, 1280x532
Аудио: AC3, 384 kb/s (6 ch)

MI

Format                                  : Matroska
Format version                          : Version 2
File size                                : 3.14 GiB
Duration                                : 1h 41mn
Overall bit rate                        : 4 451 Kbps
Encoded date                            : UTC 2015-06-22 00:20:52
Writing application                      : mkvmerge v7.9.0 ('Birds') 64bit
Writing library                          : libebml v1.3.1 + libmatroska v1.4.2
DURATION                                : 01:41:06.528000000
NUMBER_OF_FRAMES                        : 189579
NUMBER_OF_BYTES                          : 291193344
_STATISTICS_WRITING_APP                  : mkvmerge v7.9.0 ('Birds') 64bit
_STATISTICS_WRITING_DATE_UTC            : 2015-06-22 00:20:52
_STATISTICS_TAGS                        : BPS DURATION NUMBER_OF_FRAMES NUMBER_OF_BYTES
Video
ID                                      : 1
Format                                  : AVC
Format/Info                              : Advanced Video Codec
Format profile                          : [email protected]
Format settings, CABAC                  : No
Format settings, ReFrames                : 2 frames
Codec ID                                : V_MPEG4/ISO/AVC
Duration                                : 1h 41mn
Bit rate                                : 3 978 Kbps
Width                                    : 1 280 pixels
Height                                  : 532 pixels
Display aspect ratio                    : 2.40:1
Frame rate mode                          : Constant
Frame rate                              : 24.000 fps
Color space                              : YUV
Chroma subsampling                      : 4:2:0
Bit depth                                : 8 bits
Scan type                                : Progressive
Bits/(Pixel*Frame)                      : 0.243
Stream size                              : 2.81 GiB (89%)
Language                                : English
Default                                  : Yes
Forced                                  : No
Color primaries                          : BT.709
Transfer characteristics                : BT.709
Matrix coefficients                      : BT.709
Audio
ID                                      : 2
Format                                  : AC-3
Format/Info                              : Audio Coding 3
Mode extension                          : CM (complete main)
Format settings, Endianness              : Big
Codec ID                                : A_AC3
Duration                                : 1h 41mn
Bit rate mode                            : Constant
Bit rate                                : 384 Kbps
Channel(s)                              : 6 channels
Channel positions                        : Front: L C R, Side: L R, LFE
Sampling rate                            : 48.0 KHz
Bit depth                                : 16 bits
Compression mode                        : Lossy
Stream size                              : 278 MiB (9%)
Language                                : Russian
Default                                  : Yes
Forced                                  : No
Menu
00:00:00.000                            : en:Глава 1
00:05:23.000                            : en:Глава 2
00:10:50.000                            : en:Глава 3
00:15:18.000                            : en:Глава 4
00:20:21.000                            : en:Глава 5
00:23:58.000                            : en:Глава 6
00:28:07.000                            : en:Глава 7
00:34:37.000                            : en:Глава 8
00:37:21.000                            : en:Глава 9
00:41:59.000                            : en:Глава 10
00:46:05.000                            : en:Глава 11
00:50:11.000                            : en:Глава 12
00:52:51.000                            : en:Глава 13
00:55:24.000                            : en:Глава 14
01:00:43.000                            : en:Глава 15
01:06:39.000                            : en:Глава 16
01:10:21.000                            : en:Глава 17
01:13:36.000                            : en:Глава 18
01:17:07.000                            : en:Глава 19
01:21:18.000                            : en:Глава 20
01:24:31.000                            : en:Глава 21
01:30:34.000                            : en:Глава 22

Скриншоты:

Яндекс.Метрика
Рейтинг@Mail.ru