(Jazz Fusion) [CD] Al Di Meola - Elysium - 2015, FLAC (tracks+.cue), lossless

 

Создавать темы 18-Июн-2015 19:50

-Al Di Meola - Elysium- Жанр: Jazz Fusion
Носитель: CD
Год издания: 2015
Издатель (лейбл): In-Akustik
Номер по каталогу: INK 9141
Страна исполнителя (группы): US
Аудиокодек: FLAC (*.flac)
Тип рипа: tracks+.cue
Битрейт аудио: lossless
Продолжительность: 1:05:54
Источник (релизер): what.cd
Наличие сканов в содержимом раздачи: нет-Треклист:
1. Adour
2. Cascade
3. Babylon
4. Purple and Gold
5. Esmeralda
6. Elysium
7. Amanjena
8. Sierra
9. Etcetera in E-major (Intro)
10. Etcetera in E-minor
11. Tangier
12. Stephanie
13. Monsters
14. La Lluvia
Смотреть видео

Лог создания рипа

Exact Audio Copy V1.0 beta 6 from 9. April 2015
EAC extraction logfile from 17. June 2015, 11:28
Al Di Meola / Elysium
Used drive  : Optiarc DVD RW AD-5260S   Adapter: 1  ID: 0
Read mode               : Secure
Utilize accurate stream : Yes
Defeat audio cache      : Yes
Make use of C2 pointers : No
Read offset correction                      : 48
Overread into Lead-In and Lead-Out          : No
Fill up missing offset samples with silence : Yes
Delete leading and trailing silent blocks   : No
Null samples used in CRC calculations       : Yes
Used interface                              : Native Win32 interface for Win NT & 2000
Gap handling                                : Appended to previous track
Used output format              : User Defined Encoder
Selected bitrate                : 1024 kBit/s
Quality                         : High
Add ID3 tag                     : No
Command line compressor         : C:\Program Files (x86)\Exact Audio Copy\Flac\flac.exe
Additional command line options : -T "artist=%artist%" -T "title=%title%" -T "album=%albumtitle%" -T "date=%year%" -T "tracknumber=%tracknr%" -T "genre=%genre%" -5 %source%
TOC of the extracted CD
     Track |   Start  |  Length  | Start sector | End sector
    ---------------------------------------------------------
        1  |  0:00.00 |  6:49.17 |         0    |    30691
        2  |  6:49.17 |  5:06.56 |     30692    |    53697
        3  | 11:55.73 |  4:11.63 |     53698    |    72585
        4  | 16:07.61 |  6:04.56 |     72586    |    99941
        5  | 22:12.42 |  4:37.07 |     99942    |   120723
        6  | 26:49.49 |  4:23.05 |    120724    |   140453
        7  | 31:12.54 |  5:17.33 |    140454    |   164261
        8  | 36:30.12 |  4:44.02 |    164262    |   185563
        9  | 41:14.14 |  1:26.38 |    185564    |   192051
       10  | 42:40.52 |  5:18.42 |    192052    |   215943
       11  | 47:59.19 |  3:35.54 |    215944    |   232122
       12  | 51:34.73 |  6:32.53 |    232123    |   261575
       13  | 58:07.51 |  3:15.45 |    261576    |   276245
       14  | 61:23.21 |  4:30.54 |    276246    |   296549
Track  1
     Filename C:\Users\Mike\Music\Al Di Meola - Elysium [2015] [FLAC]\01 - Adour - Elysium - Al Di Meola.wav
     Pre-gap length  0:00:02.00
     Peak level 98.9 %
     Extraction speed 2.7 X
     Track quality 100.0 %
     Test CRC 039EED4B
     Copy CRC 039EED4B
     Accurately ripped (confidence 1)  [B4AA0B4B]  (AR v2)
     Copy OK
Track  2
     Filename C:\Users\Mike\Music\Al Di Meola - Elysium [2015] [FLAC]\02 - Cascade - Elysium - Al Di Meola.wav
     Peak level 98.9 %
     Extraction speed 2.7 X
     Track quality 99.9 %
     Test CRC D81A4CB8
     Copy CRC D81A4CB8
     Accurately ripped (confidence 1)  [46B3FE99]  (AR v2)
     Copy OK
Track  3
     Filename C:\Users\Mike\Music\Al Di Meola - Elysium [2015] [FLAC]\03 - Babylon - Elysium - Al Di Meola.wav
     Peak level 98.9 %
     Extraction speed 3.2 X
     Track quality 100.0 %
     Test CRC 7EBAC5AD
     Copy CRC 7EBAC5AD
     Accurately ripped (confidence 1)  [B60953A4]  (AR v2)
     Copy OK
Track  4
     Filename C:\Users\Mike\Music\Al Di Meola - Elysium [2015] [FLAC]\04 - Purple and Gold - Elysium - Al Di Meola.wav
     Peak level 98.9 %
     Extraction speed 3.5 X
     Track quality 100.0 %
     Test CRC 047B4F22
     Copy CRC 047B4F22
     Accurately ripped (confidence 1)  [ED4FF69D]  (AR v2)
     Copy OK
Track  5
     Filename C:\Users\Mike\Music\Al Di Meola - Elysium [2015] [FLAC]\05 - Esmeralda - Elysium - Al Di Meola.wav
     Peak level 98.9 %
     Extraction speed 3.6 X
     Track quality 100.0 %
     Test CRC F662E3C1
     Copy CRC F662E3C1
     Accurately ripped (confidence 1)  [055DA3F5]  (AR v2)
     Copy OK
Track  6
     Filename C:\Users\Mike\Music\Al Di Meola - Elysium [2015] [FLAC]\06 - Elysium - Elysium - Al Di Meola.wav
     Peak level 98.9 %
     Extraction speed 3.8 X
     Track quality 100.0 %
     Test CRC D4A70900
     Copy CRC D4A70900
     Accurately ripped (confidence 1)  [ADEEB5B1]  (AR v2)
     Copy OK
Track  7
     Filename C:\Users\Mike\Music\Al Di Meola - Elysium [2015] [FLAC]\07 - Amanjena - Elysium - Al Di Meola.wav
     Peak level 98.9 %
     Extraction speed 4.1 X
     Track quality 100.0 %
     Test CRC CF48DC83
     Copy CRC CF48DC83
     Accurately ripped (confidence 1)  [76F8570B]  (AR v2)
     Copy OK
Track  8
     Filename C:\Users\Mike\Music\Al Di Meola - Elysium [2015] [FLAC]\08 - Sierra - Elysium - Al Di Meola.wav
     Peak level 98.9 %
     Extraction speed 4.2 X
     Track quality 100.0 %
     Test CRC 145C49C9
     Copy CRC 145C49C9
     Accurately ripped (confidence 1)  [CE6EC5A0]  (AR v2)
     Copy OK
Track  9
     Filename C:\Users\Mike\Music\Al Di Meola - Elysium [2015] [FLAC]\09 - Etcetera in E-major (Intro) - Elysium - Al Di Meola.wav
     Peak level 98.9 %
     Extraction speed 3.5 X
     Track quality 100.0 %
     Test CRC 64921318
     Copy CRC 64921318
     Accurately ripped (confidence 1)  [447FBBCA]  (AR v2)
     Copy OK
Track 10
     Filename C:\Users\Mike\Music\Al Di Meola - Elysium [2015] [FLAC]\10 - Etcetera in E-minor - Elysium - Al Di Meola.wav
     Peak level 98.9 %
     Extraction speed 4.6 X
     Track quality 100.0 %
     Test CRC 2A72F0A7
     Copy CRC 2A72F0A7
     Accurately ripped (confidence 1)  [825BC76E]  (AR v2)
     Copy OK
Track 11
     Filename C:\Users\Mike\Music\Al Di Meola - Elysium [2015] [FLAC]\11 - Tangier - Elysium - Al Di Meola.wav
     Peak level 98.9 %
     Extraction speed 4.4 X
     Track quality 100.0 %
     Test CRC DC068E6D
     Copy CRC DC068E6D
     Accurately ripped (confidence 1)  [E66EBDBA]  (AR v2)
     Copy OK
Track 12
     Filename C:\Users\Mike\Music\Al Di Meola - Elysium [2015] [FLAC]\12 - Stephanie - Elysium - Al Di Meola.wav
     Peak level 98.9 %
     Extraction speed 4.6 X
     Track quality 99.9 %
     Test CRC 3290DAFD
     Copy CRC 3290DAFD
     Accurately ripped (confidence 1)  [0A59E78E]  (AR v2)
     Copy OK
Track 13
     Filename C:\Users\Mike\Music\Al Di Meola - Elysium [2015] [FLAC]\13 - Monsters - Elysium - Al Di Meola.wav
     Peak level 98.8 %
     Extraction speed 4.7 X
     Track quality 100.0 %
     Test CRC 12C798E9
     Copy CRC 12C798E9
     Accurately ripped (confidence 1)  [EBCEF783]  (AR v2)
     Copy OK
Track 14
     Filename C:\Users\Mike\Music\Al Di Meola - Elysium [2015] [FLAC]\14 - La Lluvia - Elysium - Al Di Meola.wav
     Peak level 98.8 %
     Extraction speed 5.1 X
     Track quality 100.0 %
     Test CRC F6EC31D6
     Copy CRC F6EC31D6
     Accurately ripped (confidence 1)  [D36E3A78]  (AR v2)
     Copy OK
All tracks accurately ripped
No errors occurred
End of status report
---- CUETools DB Plugin V2.1.6
[CTDB TOCID: PL93UpuQ7C20.do_qKs.9bVgnFA-] found
Submit result: PL93UpuQ7C20.do_qKs.9bVgnFA- has been confirmed
Track | CTDB Status
  1   | (10/10) Accurately ripped
  2   | (10/10) Accurately ripped
  3   | (10/10) Accurately ripped
  4   | (10/10) Accurately ripped
  5   | (10/10) Accurately ripped
  6   | (10/10) Accurately ripped
  7   | (10/10) Accurately ripped
  8   | (10/10) Accurately ripped
  9   | (10/10) Accurately ripped
10   | (10/10) Accurately ripped
11   | (10/10) Accurately ripped
12   | (10/10) Accurately ripped
13   | (10/10) Accurately ripped
14   | (10/10) Accurately ripped
==== Log checksum BCA3EFDBA84C92BCBD3AE6D46846ECDCB5AE226E659C408695EDE25387EE1016 ====
------------------------------------------------------------
Exact Audio Copy V1.0 beta 6 from 9. April 2015
EAC extraction logfile from 17. June 2015, 11:28
Al Di Meola / Elysium
Used drive  : Optiarc DVD RW AD-5260S   Adapter: 1  ID: 0
Read mode               : Secure
Utilize accurate stream : Yes
Defeat audio cache      : Yes
Make use of C2 pointers : No
Read offset correction                      : 48
Overread into Lead-In and Lead-Out          : No
Fill up missing offset samples with silence : Yes
Delete leading and trailing silent blocks   : No
Null samples used in CRC calculations       : Yes
Used interface                              : Native Win32 interface for Win NT & 2000
Gap handling                                : Appended to previous track
Used output format              : User Defined Encoder
Selected bitrate                : 1024 kBit/s
Quality                         : High
Add ID3 tag                     : No
Command line compressor         : C:\Program Files (x86)\Exact Audio Copy\Flac\flac.exe
Additional command line options : -T "artist=%artist%" -T "title=%title%" -T "album=%albumtitle%" -T "date=%year%" -T "tracknumber=%tracknr%" -T "genre=%genre%" -5 %source%
TOC of the extracted CD
     Track |   Start  |  Length  | Start sector | End sector
    ---------------------------------------------------------
        1  |  0:00.00 |  6:49.17 |         0    |    30691
        2  |  6:49.17 |  5:06.56 |     30692    |    53697
        3  | 11:55.73 |  4:11.63 |     53698    |    72585
        4  | 16:07.61 |  6:04.56 |     72586    |    99941
        5  | 22:12.42 |  4:37.07 |     99942    |   120723
        6  | 26:49.49 |  4:23.05 |    120724    |   140453
        7  | 31:12.54 |  5:17.33 |    140454    |   164261
        8  | 36:30.12 |  4:44.02 |    164262    |   185563
        9  | 41:14.14 |  1:26.38 |    185564    |   192051
       10  | 42:40.52 |  5:18.42 |    192052    |   215943
       11  | 47:59.19 |  3:35.54 |    215944    |   232122
       12  | 51:34.73 |  6:32.53 |    232123    |   261575
       13  | 58:07.51 |  3:15.45 |    261576    |   276245
       14  | 61:23.21 |  4:30.54 |    276246    |   296549
Track  1
     Filename C:\Users\Mike\Music\Al Di Meola - Elysium [2015] [FLAC]\01 - Adour - Elysium - Al Di Meola.wav
     Pre-gap length  0:00:02.00
     Peak level 98.9 %
     Extraction speed 2.7 X
     Track quality 100.0 %
     Test CRC 039EED4B
     Copy CRC 039EED4B
     Accurately ripped (confidence 1)  [B4AA0B4B]  (AR v2)
     Copy OK
Track  2
     Filename C:\Users\Mike\Music\Al Di Meola - Elysium [2015] [FLAC]\02 - Cascade - Elysium - Al Di Meola.wav
     Peak level 98.9 %
     Extraction speed 2.7 X
     Track quality 99.9 %
     Test CRC D81A4CB8
     Copy CRC D81A4CB8
     Accurately ripped (confidence 1)  [46B3FE99]  (AR v2)
     Copy OK
Track  3
     Filename C:\Users\Mike\Music\Al Di Meola - Elysium [2015] [FLAC]\03 - Babylon - Elysium - Al Di Meola.wav
     Peak level 98.9 %
     Extraction speed 3.2 X
     Track quality 100.0 %
     Test CRC 7EBAC5AD
     Copy CRC 7EBAC5AD
     Accurately ripped (confidence 1)  [B60953A4]  (AR v2)
     Copy OK
Track  4
     Filename C:\Users\Mike\Music\Al Di Meola - Elysium [2015] [FLAC]\04 - Purple and Gold - Elysium - Al Di Meola.wav
     Peak level 98.9 %
     Extraction speed 3.5 X
     Track quality 100.0 %
     Test CRC 047B4F22
     Copy CRC 047B4F22
     Accurately ripped (confidence 1)  [ED4FF69D]  (AR v2)
     Copy OK
Track  5
     Filename C:\Users\Mike\Music\Al Di Meola - Elysium [2015] [FLAC]\05 - Esmeralda - Elysium - Al Di Meola.wav
     Peak level 98.9 %
     Extraction speed 3.6 X
     Track quality 100.0 %
     Test CRC F662E3C1
     Copy CRC F662E3C1
     Accurately ripped (confidence 1)  [055DA3F5]  (AR v2)
     Copy OK
Track  6
     Filename C:\Users\Mike\Music\Al Di Meola - Elysium [2015] [FLAC]\06 - Elysium - Elysium - Al Di Meola.wav
     Peak level 98.9 %
     Extraction speed 3.8 X
     Track quality 100.0 %
     Test CRC D4A70900
     Copy CRC D4A70900
     Accurately ripped (confidence 1)  [ADEEB5B1]  (AR v2)
     Copy OK
Track  7
     Filename C:\Users\Mike\Music\Al Di Meola - Elysium [2015] [FLAC]\07 - Amanjena - Elysium - Al Di Meola.wav
     Peak level 98.9 %
     Extraction speed 4.1 X
     Track quality 100.0 %
     Test CRC CF48DC83
     Copy CRC CF48DC83
     Accurately ripped (confidence 1)  [76F8570B]  (AR v2)
     Copy OK
Track  8
     Filename C:\Users\Mike\Music\Al Di Meola - Elysium [2015] [FLAC]\08 - Sierra - Elysium - Al Di Meola.wav
     Peak level 98.9 %
     Extraction speed 4.2 X
     Track quality 100.0 %
     Test CRC 145C49C9
     Copy CRC 145C49C9
     Accurately ripped (confidence 1)  [CE6EC5A0]  (AR v2)
     Copy OK
Track  9
     Filename C:\Users\Mike\Music\Al Di Meola - Elysium [2015] [FLAC]\09 - Etcetera in E-major (Intro) - Elysium - Al Di Meola.wav
     Peak level 98.9 %
     Extraction speed 3.5 X
     Track quality 100.0 %
     Test CRC 64921318
     Copy CRC 64921318
     Accurately ripped (confidence 1)  [447FBBCA]  (AR v2)
     Copy OK
Track 10
     Filename C:\Users\Mike\Music\Al Di Meola - Elysium [2015] [FLAC]\10 - Etcetera in E-minor - Elysium - Al Di Meola.wav
     Peak level 98.9 %
     Extraction speed 4.6 X
     Track quality 100.0 %
     Test CRC 2A72F0A7
     Copy CRC 2A72F0A7
     Accurately ripped (confidence 1)  [825BC76E]  (AR v2)
     Copy OK
Track 11
     Filename C:\Users\Mike\Music\Al Di Meola - Elysium [2015] [FLAC]\11 - Tangier - Elysium - Al Di Meola.wav
     Peak level 98.9 %
     Extraction speed 4.4 X
     Track quality 100.0 %
     Test CRC DC068E6D
     Copy CRC DC068E6D
     Accurately ripped (confidence 1)  [E66EBDBA]  (AR v2)
     Copy OK
Track 12
     Filename C:\Users\Mike\Music\Al Di Meola - Elysium [2015] [FLAC]\12 - Stephanie - Elysium - Al Di Meola.wav
     Peak level 98.9 %
     Extraction speed 4.6 X
     Track quality 99.9 %
     Test CRC 3290DAFD
     Copy CRC 3290DAFD
     Accurately ripped (confidence 1)  [0A59E78E]  (AR v2)
     Copy OK
Track 13
     Filename C:\Users\Mike\Music\Al Di Meola - Elysium [2015] [FLAC]\13 - Monsters - Elysium - Al Di Meola.wav
     Peak level 98.8 %
     Extraction speed 4.7 X
     Track quality 100.0 %
     Test CRC 12C798E9
     Copy CRC 12C798E9
     Accurately ripped (confidence 1)  [EBCEF783]  (AR v2)
     Copy OK
Track 14
     Filename C:\Users\Mike\Music\Al Di Meola - Elysium [2015] [FLAC]\14 - La Lluvia - Elysium - Al Di Meola.wav
     Peak level 98.8 %
     Extraction speed 5.1 X
     Track quality 100.0 %
     Test CRC F6EC31D6
     Copy CRC F6EC31D6
     Accurately ripped (confidence 1)  [D36E3A78]  (AR v2)
     Copy OK
All tracks accurately ripped
No errors occurred
End of status report
---- CUETools DB Plugin V2.1.6
[CTDB TOCID: PL93UpuQ7C20.do_qKs.9bVgnFA-] found
Submit result: PL93UpuQ7C20.do_qKs.9bVgnFA- has been confirmed
Track | CTDB Status
  1   | (10/10) Accurately ripped
  2   | (10/10) Accurately ripped
  3   | (10/10) Accurately ripped
  4   | (10/10) Accurately ripped
  5   | (10/10) Accurately ripped
  6   | (10/10) Accurately ripped
  7   | (10/10) Accurately ripped
  8   | (10/10) Accurately ripped
  9   | (10/10) Accurately ripped
10   | (10/10) Accurately ripped
11   | (10/10) Accurately ripped
12   | (10/10) Accurately ripped
13   | (10/10) Accurately ripped
14   | (10/10) Accurately ripped
==== Log checksum BCA3EFDBA84C92BCBD3AE6D46846ECDCB5AE226E659C408695EDE25387EE1016 ====
------------------------------------------------------------
Exact Audio Copy V1.0 beta 6 from 9. April 2015
EAC extraction logfile from 17. June 2015, 11:28
Al Di Meola / Elysium
Used drive  : Optiarc DVD RW AD-5260S   Adapter: 1  ID: 0
Read mode               : Secure
Utilize accurate stream : Yes
Defeat audio cache      : Yes
Make use of C2 pointers : No
Read offset correction                      : 48
Overread into Lead-In and Lead-Out          : No
Fill up missing offset samples with silence : Yes
Delete leading and trailing silent blocks   : No
Null samples used in CRC calculations       : Yes
Used interface                              : Native Win32 interface for Win NT & 2000
Gap handling                                : Appended to previous track
Used output format              : User Defined Encoder
Selected bitrate                : 1024 kBit/s
Quality                         : High
Add ID3 tag                     : No
Command line compressor         : C:\Program Files (x86)\Exact Audio Copy\Flac\flac.exe
Additional command line options : -T "artist=%artist%" -T "title=%title%" -T "album=%albumtitle%" -T "date=%year%" -T "tracknumber=%tracknr%" -T "genre=%genre%" -5 %source%
TOC of the extracted CD
     Track |   Start  |  Length  | Start sector | End sector
    ---------------------------------------------------------
        1  |  0:00.00 |  6:49.17 |         0    |    30691
        2  |  6:49.17 |  5:06.56 |     30692    |    53697
        3  | 11:55.73 |  4:11.63 |     53698    |    72585
        4  | 16:07.61 |  6:04.56 |     72586    |    99941
        5  | 22:12.42 |  4:37.07 |     99942    |   120723
        6  | 26:49.49 |  4:23.05 |    120724    |   140453
        7  | 31:12.54 |  5:17.33 |    140454    |   164261
        8  | 36:30.12 |  4:44.02 |    164262    |   185563
        9  | 41:14.14 |  1:26.38 |    185564    |   192051
       10  | 42:40.52 |  5:18.42 |    192052    |   215943
       11  | 47:59.19 |  3:35.54 |    215944    |   232122
       12  | 51:34.73 |  6:32.53 |    232123    |   261575
       13  | 58:07.51 |  3:15.45 |    261576    |   276245
       14  | 61:23.21 |  4:30.54 |    276246    |   296549
Track  1
     Filename C:\Users\Mike\Music\Al Di Meola - Elysium [2015] [FLAC]\01 - Adour - Elysium - Al Di Meola.wav
     Pre-gap length  0:00:02.00
     Peak level 98.9 %
     Extraction speed 2.7 X
     Track quality 100.0 %
     Test CRC 039EED4B
     Copy CRC 039EED4B
     Accurately ripped (confidence 1)  [B4AA0B4B]  (AR v2)
     Copy OK
Track  2
     Filename C:\Users\Mike\Music\Al Di Meola - Elysium [2015] [FLAC]\02 - Cascade - Elysium - Al Di Meola.wav
     Peak level 98.9 %
     Extraction speed 2.7 X
     Track quality 99.9 %
     Test CRC D81A4CB8
     Copy CRC D81A4CB8
     Accurately ripped (confidence 1)  [46B3FE99]  (AR v2)
     Copy OK
Track  3
     Filename C:\Users\Mike\Music\Al Di Meola - Elysium [2015] [FLAC]\03 - Babylon - Elysium - Al Di Meola.wav
     Peak level 98.9 %
     Extraction speed 3.2 X
     Track quality 100.0 %
     Test CRC 7EBAC5AD
     Copy CRC 7EBAC5AD
     Accurately ripped (confidence 1)  [B60953A4]  (AR v2)
     Copy OK
Track  4
     Filename C:\Users\Mike\Music\Al Di Meola - Elysium [2015] [FLAC]\04 - Purple and Gold - Elysium - Al Di Meola.wav
     Peak level 98.9 %
     Extraction speed 3.5 X
     Track quality 100.0 %
     Test CRC 047B4F22
     Copy CRC 047B4F22
     Accurately ripped (confidence 1)  [ED4FF69D]  (AR v2)
     Copy OK
Track  5
     Filename C:\Users\Mike\Music\Al Di Meola - Elysium [2015] [FLAC]\05 - Esmeralda - Elysium - Al Di Meola.wav
     Peak level 98.9 %
     Extraction speed 3.6 X
     Track quality 100.0 %
     Test CRC F662E3C1
     Copy CRC F662E3C1
     Accurately ripped (confidence 1)  [055DA3F5]  (AR v2)
     Copy OK
Track  6
     Filename C:\Users\Mike\Music\Al Di Meola - Elysium [2015] [FLAC]\06 - Elysium - Elysium - Al Di Meola.wav
     Peak level 98.9 %
     Extraction speed 3.8 X
     Track quality 100.0 %
     Test CRC D4A70900
     Copy CRC D4A70900
     Accurately ripped (confidence 1)  [ADEEB5B1]  (AR v2)
     Copy OK
Track  7
     Filename C:\Users\Mike\Music\Al Di Meola - Elysium [2015] [FLAC]\07 - Amanjena - Elysium - Al Di Meola.wav
     Peak level 98.9 %
     Extraction speed 4.1 X
     Track quality 100.0 %
     Test CRC CF48DC83
     Copy CRC CF48DC83
     Accurately ripped (confidence 1)  [76F8570B]  (AR v2)
     Copy OK
Track  8
     Filename C:\Users\Mike\Music\Al Di Meola - Elysium [2015] [FLAC]\08 - Sierra - Elysium - Al Di Meola.wav
     Peak level 98.9 %
     Extraction speed 4.2 X
     Track quality 100.0 %
     Test CRC 145C49C9
     Copy CRC 145C49C9
     Accurately ripped (confidence 1)  [CE6EC5A0]  (AR v2)
     Copy OK
Track  9
     Filename C:\Users\Mike\Music\Al Di Meola - Elysium [2015] [FLAC]\09 - Etcetera in E-major (Intro) - Elysium - Al Di Meola.wav
     Peak level 98.9 %
     Extraction speed 3.5 X
     Track quality 100.0 %
     Test CRC 64921318
     Copy CRC 64921318
     Accurately ripped (confidence 1)  [447FBBCA]  (AR v2)
     Copy OK
Track 10
     Filename C:\Users\Mike\Music\Al Di Meola - Elysium [2015] [FLAC]\10 - Etcetera in E-minor - Elysium - Al Di Meola.wav
     Peak level 98.9 %
     Extraction speed 4.6 X
     Track quality 100.0 %
     Test CRC 2A72F0A7
     Copy CRC 2A72F0A7
     Accurately ripped (confidence 1)  [825BC76E]  (AR v2)
     Copy OK
Track 11
     Filename C:\Users\Mike\Music\Al Di Meola - Elysium [2015] [FLAC]\11 - Tangier - Elysium - Al Di Meola.wav
     Peak level 98.9 %
     Extraction speed 4.4 X
     Track quality 100.0 %
     Test CRC DC068E6D
     Copy CRC DC068E6D
     Accurately ripped (confidence 1)  [E66EBDBA]  (AR v2)
     Copy OK
Track 12
     Filename C:\Users\Mike\Music\Al Di Meola - Elysium [2015] [FLAC]\12 - Stephanie - Elysium - Al Di Meola.wav
     Peak level 98.9 %
     Extraction speed 4.6 X
     Track quality 99.9 %
     Test CRC 3290DAFD
     Copy CRC 3290DAFD
     Accurately ripped (confidence 1)  [0A59E78E]  (AR v2)
     Copy OK
Track 13
     Filename C:\Users\Mike\Music\Al Di Meola - Elysium [2015] [FLAC]\13 - Monsters - Elysium - Al Di Meola.wav
     Peak level 98.8 %
     Extraction speed 4.7 X
     Track quality 100.0 %
     Test CRC 12C798E9
     Copy CRC 12C798E9
     Accurately ripped (confidence 1)  [EBCEF783]  (AR v2)
     Copy OK
Track 14
     Filename C:\Users\Mike\Music\Al Di Meola - Elysium [2015] [FLAC]\14 - La Lluvia - Elysium - Al Di Meola.wav
     Peak level 98.8 %
     Extraction speed 5.1 X
     Track quality 100.0 %
     Test CRC F6EC31D6
     Copy CRC F6EC31D6
     Accurately ripped (confidence 1)  [D36E3A78]  (AR v2)
     Copy OK
All tracks accurately ripped
No errors occurred
End of status report
---- CUETools DB Plugin V2.1.6
[CTDB TOCID: PL93UpuQ7C20.do_qKs.9bVgnFA-] found
Submit result: PL93UpuQ7C20.do_qKs.9bVgnFA- has been confirmed
Track | CTDB Status
  1   | (10/10) Accurately ripped
  2   | (10/10) Accurately ripped
  3   | (10/10) Accurately ripped
  4   | (10/10) Accurately ripped
  5   | (10/10) Accurately ripped
  6   | (10/10) Accurately ripped
  7   | (10/10) Accurately ripped
  8   | (10/10) Accurately ripped
  9   | (10/10) Accurately ripped
10   | (10/10) Accurately ripped
11   | (10/10) Accurately ripped
12   | (10/10) Accurately ripped
13   | (10/10) Accurately ripped
14   | (10/10) Accurately ripped
==== Log checksum BCA3EFDBA84C92BCBD3AE6D46846ECDCB5AE226E659C408695EDE25387EE1016 ====
Яндекс.Метрика
Рейтинг@Mail.ru