А зори здесь тихие... [01-12 из 12] (2005) DVDRip-AVC от New-Team

 

Создавать темы 16-Июн-2015 21:47

-А зори здесь тихие... [01-12 из 12]- Год выпуска: 2005
Страна: Россия, Китай
Студия: China Central Television (CCTV)
Жанр: боевик, драма, военный
Продолжительность: серия ~ 45 мин.
Перевод: не требуется
Субтитры: нет
Оригинальная аудиодорожка: русский
Режиссер: Мао Вэйнин / Mao Veynin
В ролях: Андрей Соколов, Татьяна Остап, Дарья Чаруша, Елена Мальцева, Снежана Гладнева, Александра Теряева, Людмила Колесникова...
Описание: Действие происходит во время Великой Отечественной войны... Россия, Карелия, осень 1941 года. Пять девушек - зенитчиц, многим из которых нет еще и 20 лет, и их командир, старшина Васков, неожиданно обнаруживают, что в этой, еще далекой от линии фронта местности, высадился немецкий диверсионный отряд. Необходимо передать эту информацию в штаб. Но связь нарушена диверсантами, маленький отряд отрезан от своих, и помощи ждать не приходиться. Враги пытаются проникнуть дальше в тыл советских войск с заданием уничтожить ряд важных объектов. Васков с пятью девочками принимают неравный бой против шестнадцати до зубов вооруженных фрицев...

Исходник: 4хDVD9 R5
Тип релиза: DVDRip-AVC
Контейнер: MKV
Видео: 704->768x432 (16:9), 25 fps, H264 ~ 1925 kbps avg, 0.253 bit/pixel
Аудио: 48 kHz, Dolby AC3 5.1, 448 kbps

MediaInfo

Общее
Полное имя : A.zori.zdes'.tihie.2005.DVDRip-AVC_[Youtracker]_by_AVP Studio10.mkv
Формат : Matroska
Версия формата : Version 2
Размер файла : 746 Мбайт
Продолжительность : 43 м.
Общий поток : 2375 Кбит/сек
Дата кодирования : UTC 2013-06-21 18:31:01
Программа кодирования : mkvmerge v5.0.1 ('Es ist Sommer') built on Nov 6 2011 16:23:40
Библиотека кодирования : libebml v1.2.2 + libmatroska v1.3.0
Видео
Идентификатор : 1
Формат : AVC
Формат/Информация : Advanced Video Codec
Профиль формата : [email protected]
Параметр CABAC формата : Да
Параметр ReFrames формата : 11 кадров
Идентификатор кодека : V_MPEG4/ISO/AVC
Продолжительность : 43 м.
Битрейт : 1925 Кбит/сек
Ширина : 704 пикселя
Высота : 432 пикселя
Соотношение сторон : 16:9
Соотношение сторон в оригинале : 16:9
Частота кадров : 25,000 кадров/сек
Цветовое пространство : YUV
Субдискретизация насыщенности : 4:2:0
Битовая глубина : 8 бит
Тип развёртки : Прогрессивная
Бит/(Пиксели*Кадры) : 0.253
Размер потока : 591 Мбайт (79%)
Библиотека кодирования : x264 core 130 r2273 b3065e6
Настройки программы : cabac=1 / ref=11 / deblock=1:-2:-1 / analyse=0x3:0x113 / me=umh / subme=9 / psy=1 / psy_rd=1.00:0.20 / mixed_ref=1 / me_range=32 / chroma_me=1 / trellis=1 / 8x8dct=1 / cqm=0 / deadzone=21,11 / fast_pskip=0 / chroma_qp_offset=-3 / threads=3 / lookahead_threads=1 / sliced_threads=0 / nr=0 / decimate=0 / interlaced=0 / bluray_compat=0 / constrained_intra=0 / bframes=8 / b_pyramid=2 / b_adapt=2 / b_bias=0 / direct=3 / weightb=1 / open_gop=0 / weightp=2 / keyint=250 / keyint_min=25 / scenecut=40 / intra_refresh=0 / rc_lookahead=60 / rc=2pass / mbtree=1 / bitrate=1925 / ratetol=1.0 / qcomp=0.60 / qpmin=0 / qpmax=69 / qpstep=4 / cplxblur=20.0 / qblur=0.5 / ip_ratio=1.40 / aq=1:1.00
Default : Да
Forced : Нет
Аудио
Идентификатор : 2
Формат : AC-3
Формат/Информация : Audio Coding 3
Расширение режима : CM (complete main)
Идентификатор кодека : A_AC3
Продолжительность : 43 м.
Вид битрейта : Постоянный
Битрейт : 448 Кбит/сек
Каналы : 6 каналов
Расположение каналов : Front: L C R, Side: L R, LFE
Частота : 48,0 КГц
Битовая глубина : 16 бит
Метод сжатия : С потерями
Размер потока : 141 Мбайт (19%)
Default : Да
Forced : Нет
-Скриншоты:
Яндекс.Метрика
Рейтинг@Mail.ru