(Electronic, Synth-Pop) Cat's Disco Lab - The Album - 2003, FLAC (image+.cue) lossless

 

Создавать темы 14-Июн-2015 18:36

-Cat's Disco Lab - The Album- Жанр: Electronic, Synth-Pop
Страна-производитель диска: Switzerland
Год издания диска: 2003
Издатель (лейбл): HYPERSOUND PRODUCTIONS
Номер по каталогу: HYPS 71021
Аудио кодек: FLAC (*.flac)
Тип рипа: image+.cue
Битрейт аудио: lossless
Продолжительность: 01:05:36.48
Источник (релизер): Физический носитель
Наличие сканов в содержимом раздачи: да-Треклист:
01. Space Cat's Attack 06:46
02. Cat's Planet 07:36
03. Digital World 06:42
04. Cat's Thinking 06:43
05. Silicon Fish For Silicon Cat 06:16
06. Mechanical Cat's Game 05:40
07. Devourer Of Flowers 07:07
08. Russian Theme 06:07
09. Escape From Time 05:36
10. Cyber Laboratorium 06:58

Лог создания рипа

Exact Audio Copy V0.99 prebeta 5 from 4. May 2009
Отчёт EAC об извлечении, выполненном 12. ноября 2010, 23:01
Cat's Disco Lab / The Album
Дисковод: TEAC    DV-W58G   Adapter: 3  ID: 1
Режим чтения                 : ДостоверностьИспользование точного потока : ДаОтключение кэша аудио        : ДаИспользование указателей C2  : Нет
Коррекция смещения при чтении                     : 12Способность читать области Lead-in и Lead-out     : НетЗаполнение пропущенных сэмплов тишиной            : ДаУдаление блоков с тишиной в начале и конце        : НетПри вычислениях CRC использовались нулевые сэмплы : ДаИнтерфейс                                         : Установленный внешний ASPI-интерфейс
Выходной формат          : Пользовательский кодировщикВыбранный битрейт        : 768 kBit/sКачество                 : ВысокийДобавление ID3-тэга      : НетУтилита сжатия           : C:\Program Files\Exact Audio Copy\FLAC\FLAC.EXEДополнительные параметры : -8 -V %s
TOC извлечённого CD
Трек |   Старт  | Длительность | Начальный сектор | Конечный сектор    ---------------------------------------------------------------------       1  |  0:00.00 |    6:46.64   |           0      |      30513       2  |  6:46.64 |    7:36.43   |       30514      |      64756       3  | 14:23.32 |    6:42.46   |       64757      |      94952       4  | 21:06.03 |    6:43.56   |       94953      |     125233       5  | 27:49.59 |    6:16.55   |      125234      |     153488       6  | 34:06.39 |    5:40.48   |      153489      |     179036       7  | 39:47.12 |    7:07.19   |      179037      |     211080       8  | 46:54.31 |    6:07.44   |      211081      |     238649       9  | 53:02.00 |    5:36.08   |      238650      |     263857      10  | 58:38.08 |    6:58.40   |      263858      |     295247
Характеристики диапазона извлечения и сообщения об ошибках
Выбранный диапазон
Имя файла E:\audiout\Cat's Disco Lab - The Album.wav
Пиковый уровень 100.0 %     Качество диапазона 99.9 %     CRC теста 403E5D02     CRC копии 403E5D02     Копирование... OK
Ошибок не произошло
AccurateRip: сводка
Трек  1  точное извлечение (доверие 2)  [D2F049A0]Трек  2  точное извлечение (доверие 2)  [6A9B04BE]Трек  3  точное извлечение (доверие 2)  [0CBA2830]Трек  4  точное извлечение (доверие 2)  [A53E2297]Трек  5  точное извлечение (доверие 2)  [5BE784F4]Трек  6  точное извлечение (доверие 2)  [D331593D]Трек  7  точное извлечение (доверие 2)  [AC30F902]Трек  8  точное извлечение (доверие 2)  [59CAAC82]Трек  9  точное извлечение (доверие 2)  [2CC6970C]Трек 10  точное извлечение (доверие 2)  [0196DF9D]
Все треки извлечены точно
Конец отчёта
Яндекс.Метрика
Рейтинг@Mail.ru