Азуми / Azumi (Рюхэй Китамура)[2003,Боевик, триллер, фэнтези, драма, приключения, BDRip-AVC] от ExKinoRay

 

Создавать темы 07-Дек-2013 03:01

Информация о фильме
Название: Азуми
Оригинальное название: Azumi
Год выхода: 2003
Жанр: Боевик, триллер, фэнтези, драма, приключения
Режиссер: Рюхэй Китамура
В ролях: Ая Уето, Шун Огури, Хироки Наримия, Кенджи Кохаши, Такатоши Канеко, Юма Ишигаки, Ясуоми Сано, Шиньджи Сузуки, Эйта, Шого Ямагучи, Казуки Китамура, Кеничи Эндо, Казуя Шимицу, Рио, Йошио Харада, Масато Ибу, Минору Мацумото, Джо Одагири, Ая Окамото, Так Сакагучи
О фильме:
В одном из уединенных монастырей, путем жесткого отбора и специальных тренировок создавалась каста профессиональных убийц. Десять выпускников сошлись в смертельной схватке. В живых останутся лучшие. Ей предназначена миссия по предотвращению гражданской войны путем уничтожения правителей трех провинций. Но время было упущено и теперь Азуми предстоит сражение с огромной армией последнего правителя…

Страна: Япония, Amuse Pictures Inc
Продолжительность: 02:15:02
Перевод: Профессиональный многоголосый
Дата релиза: 06.12.2013
Файл
Кодек: H.264
Качество: BDRip (AVC)
Видео: MPEG-4 AVC, 1853 Кбит/с, 1024x544
Звук: AC3, 6 ch, 448 Кбит/с

MediaInfo

Общее
Уникальный идентификатор : 220205246975771202432095702594616162919 (0xA5A9FCE76B692B0A84C63DCBD22DFA67)
Полное имя : E:2Azumi.2003.x264.BDRip.(AVC).ExKinoRay.mkv
Формат : Matroska
Размер файла : 2,17 Гбайт
Продолжительность : 2 ч. 15 м.
Общий поток : 2303 Кбит/сек
Название фильма : Azumi.2003.x264.BDRip.(AVC).ExKinoRay
Дата кодирования : UTC 2013-12-05 16:36:31
Программа кодирования : mkvmerge v4.0.0 ('The Stars were mine') сборка от Jun 6 2010 16:18:42
Библиотека кодирования : libebml v1.0.0 + libmatroska v1.0.0
Видео
Идентификатор : 1
Формат : AVC
Формат/Информация : Advanced Video Codec
Профиль формата : [email protected]
Параметр CABAC формата : Да
Параметр ReFrames формата : 8 кадров
Идентификатор кодека : V_MPEG4/ISO/AVC
Продолжительность : 2 ч. 15 м.
Битрейт : 1853 Кбит/сек
Ширина : 1024 пикс.
Высота : 544 пикс.
Соотношение сторон : 1,882
Частота кадров : 23,976 кадр/сек
Цветовое пространство : YUV
Подвыборка цветности : 4:2:0
Битовая глубина : 8 бит
Тип развёртки : Прогрессивная
Бит/(Пиксели*Кадры) : 0.139
Размер потока : 1,71 Гбайт (79%)
Заголовок : Rip by Enigma-Vladislav71
Библиотека кодирования : x264 core 125 r2208 d9d2288
Настройки программы : cabac=1 / ref=8 / deblock=1:-2:-2 / analyse=0x3:0x133 / me=umh / subme=11 / psy=1 / psy_rd=1.00:0.00 / mixed_ref=1 / me_range=48 / chroma_me=1 / trellis=2 / 8x8dct=1 / cqm=0 / deadzone=21,11 / fast_pskip=0 / chroma_qp_offset=-2 / threads=3 / lookahead_threads=1 / sliced_threads=0 / nr=0 / decimate=0 / interlaced=0 / bluray_compat=0 / constrained_intra=0 / bframes=8 / b_pyramid=2 / b_adapt=2 / b_bias=0 / direct=3 / weightb=1 / open_gop=0 / weightp=2 / keyint=240 / keyint_min=23 / scenecut=40 / intra_refresh=0 / rc=2pass / mbtree=0 / bitrate=1853 / ratetol=1.0 / qcomp=0.60 / qpmin=10 / qpmax=51 / qpstep=4 / cplxblur=20.0 / qblur=0.5 / ip_ratio=1.40 / pb_ratio=1.30 / aq=1:1.00
Аудио
Идентификатор : 2
Формат : AC-3
Формат/Информация : Audio Coding 3
Расширение режима : CM (complete main)
Идентификатор кодека : A_AC3
Продолжительность : 2 ч. 15 м.
Вид битрейта : Постоянный
Битрейт : 448 Кбит/сек
Каналы : 6 каналов
Расположение каналов : Front: L C R, Side: L R, LFE
Частота : 48,0 КГц
Битовая глубина : 16 бит
Метод сжатия : С потерями
Размер потока : 433 Мбайт (19%)
Язык : Russian

Скриншоты

Яндекс.Метрика
Рейтинг@Mail.ru