Лето волков [1-6 из 6] (2011,драма, военный) BDRip

 

Создавать темы 07-Дек-2013 00:48

Страна: Россия
Жанр: драма, военный
Год выпуска: 2011
Продолжительность: 05:22:43-Перевод: Не требуется
Режиссер: Дмитрий Иосифов
В ролях: Алексей Бардуков (Иван), Игорь Скляр (Пётр Глумский), Юлия Пересильд (Тося), Мария Куликова (Варвара), Александр Воробьев (Попеленко), Сергей Колтаков (Семиренков), Михаил Евланов (Валерка), Вера Кавалерова (Серафима Гадеевна), Мария Звонарева (Алена), Олег Тактаров (Клымарь), Петр Ступин (Маляс), Ольга Онищенко (Малясиха)-Описание: Молодой лейтенант, получив отпуск после ранения, приезжает в родные места: здесь, по фронтовым понятиям, глубокий тыл. Окружённое лесами село мало изменилось, война почти не тронула его. Но, всё то и не то... Любимая девушка, давшая обещание «ждать вечно», не хочет даже разговаривать, земляки избегают его, а самый близкий человек, бабка, добрый ангел детства, умоляет снять награды с гимнастёрки и ни за что не ходить в лес. Жестокие убийства заставляют фронтовика вступить в борьбу с теми, кто таится в лесных чащобах. Но, чтобы добраться до убийц, предстоит выяснить, кто из односельчан связан с ними...- -Качество: BDRip | sample
Контейнер: AVI
Исходник: BD
Видео 1: 720x400 (1.80:1), 24.000 fps, XviD build 65 ~1496 kbps avg, 0.22 bit/pixel
Видео 2: 720x400 (1.80:1), 24.000 fps, XviD build 65 ~1414 kbps avg, 0.20 bit/pixel
Видео 3: 720x400 (1.80:1), 24.000 fps, XviD build 65 ~1489 kbps avg, 0.22 bit/pixel
Видео 4: 720x400 (1.80:1), 24.000 fps, XviD build 65 ~1487 kbps avg, 0.22 bit/pixel
Видео 5: 720x400 (1.80:1), 24.000 fps, XviD build 65 ~1514 kbps avg, 0.22 bit/pixel
Видео 6: 720x400 (1.80:1), 24.000 fps, XviD build 65 ~1392 kbps avg, 0.20 bit/pixel
Аудио: AC3 / 5.1 / 48 kHz / 448 kbps / 16 bit-

Скриншоты

Media Info

General
Complete name : E:My_ripЛето.волков.BDRip.[New-Team]1s.avi
Format : AVI
Format/Info : Audio Video Interleave
File size : 740 MiB
Duration : 52mn 57s
Overall bit rate : 1 954 Kbps
Writing application : VirtualDubMod 1.5.10.3 | www.virtualdub-fr.org || (build 2550/release)
Writing library : VirtualDubMod build 2550/release
Video
ID : 0
Format : MPEG-4 Visual
Format profile : Advanced [email protected]
Format settings, BVOP : 2
Format settings, QPel : No
Format settings, GMC : No warppoints
Format settings, Matrix : Custom
Codec ID : XVID
Codec ID/Hint : XviD
Duration : 52mn 57s
Bit rate : 1 496 Kbps
Width : 720 pixels
Height : 400 pixels
Display aspect ratio : 16:9
Frame rate : 24.000 fps
Color space : YUV
Chroma subsampling : 4:2:0
Bit depth : 8 bits
Scan type : Progressive
Compression mode : Lossy
Bits/(Pixel*Frame) : 0.216
Stream size : 567 MiB (77%)
Writing library : XviD 65
Audio
ID : 1
Format : AC-3
Format/Info : Audio Coding 3
Mode extension : CM (complete main)
Codec ID : 2000
Duration : 52mn 57s
Bit rate mode : Constant
Bit rate : 448 Kbps
Channel(s) : 6 channels
Channel positions : Front: L C R, Side: L R, LFE
Sampling rate : 48.0 KHz
Bit depth : 16 bits
Compression mode : Lossy
Stream size : 170 MiB (23%)
Alignment : Split accross interleaves
Interleave, duration : 42 ms (1.00 video frame)
Interleave, preload duration : 500 ms
Яндекс.Метрика
Рейтинг@Mail.ru