[ Сегодня на трекере фрилич! Идет свободное скачивание без начисления Download ]

OST. Микаэл Таривердиев - Мгновения (2000) FLAC

 

Создавать темы 06-Июн-2015 19:19

-Микаэл Таривердиев - Мгновения- Жанр: OST, Soundtrack
Год выпуска диска: 2000
Страна-производитель диска: Россия
Издатель (лейбл): Квадро-Диск
Номер по каталогу: RS 709
Аудиокодек: FLAC (*.flac)
Тип рипа: image+.cue
Битрейт аудио: lossless
Продолжительность: 01:02:13
Наличие сканов в содержимом раздачи: да-Треклист:
01. Мгновения (из к/ф `17 Мгновений весны`)
02. Где-то далеко (из к/ф `17 Мгновений весны`)
03. Побег (из к/ф `17 Мгновений весны`)
04. Встреча с женой (из к/ф `17 Мгновений весны`)
05. Не думай о секундах с высока (из к/ф `17 Мгновений весны`)
06. Любовь слепа (из к/ф `Адам женится на Еве`)
07. Сонет о яблоке (из к/ф `Адам женится на Еве`)
08. Люблю (из к/ф `Адам женится на Еве`)
09. Мешать соединению двух сердец (из к/ф `Адам женится на Еве`)
10. Сонет о покинутой любви (сонет о курице) (из к/ф `Адам женится на Еве`)
11. Я виноват (из к/ф `Адам женится на Еве`)
12. Пылающую голову рассвет (сонет о сыне) (из к/ф `Адам женится на Еве`)
13. Увы, мой стих (из к/ф `Адам женится на Еве`)
14. Их к/ф `Империя пиратов`
15. Из к/ф `Ночные забавы`
16. Дуэт Короля и Анджелы (из к/ф `Король-Олень`) Алла Пугачева, Юрий Яковлев
17. Песенка Тартальи (из к/ф `Король-Олень`) Сергей Юрский
18. Тарантелла (из к/ф `Король-Олень`) Алла Пугачева
19. Песенка Чигалотти (из к/ф `Король-Олень`) Олег Табаков
20. Монолог Дурандарте (из к/ф `Король-Олень`) Олег Ефремов
21. Баллада Анджелы (из к/ф `Король-Олень`) Алла Пугачева

Лог создания рипа

Exact Audio Copy V0.99 prebeta 4 from 23. January 2008
EAC extraction logfile from 6. June 2015, 5:44
Микаэл Таривердиев / Мгновения
Used drive  : GIGABYTEGO-D1600C   Adapter: 3  ID: 0
Read mode               : Secure
Utilize accurate stream : Yes
Defeat audio cache      : Yes
Make use of C2 pointers : No
Read offset correction                      : 12
Overread into Lead-In and Lead-Out          : No
Fill up missing offset samples with silence : Yes
Delete leading and trailing silent blocks   : No
Null samples used in CRC calculations       : Yes
Used interface                              : Native Win32 interface for Win NT & 2000
Used output format : Internal WAV Routines
Sample format      : 44.100 Hz; 16 Bit; Stereo
TOC of the extracted CD
     Track |   Start  |  Length  | Start sector | End sector
    ---------------------------------------------------------
        1  |  0:00.00 |  2:06.17 |         0    |     9466
        2  |  2:06.17 |  2:50.65 |      9467    |    22281
        3  |  4:57.07 |  4:48.22 |     22282    |    43903
        4  |  9:45.29 |  4:21.54 |     43904    |    63532
        5  | 14:07.08 |  2:58.64 |     63533    |    76946
        6  | 17:05.72 |  4:56.39 |     76947    |    99185
        7  | 22:02.36 |  1:59.69 |     99186    |   108179
        8  | 24:02.30 |  3:04.59 |    108180    |   122038
        9  | 27:07.14 |  3:24.74 |    122039    |   137412
       10  | 30:32.13 |  1:40.39 |    137413    |   144951
       11  | 32:12.52 |  2:22.09 |    144952    |   155610
       12  | 34:34.61 |  2:39.33 |    155611    |   167568
       13  | 37:14.19 |  4:47.31 |    167569    |   189124
       14  | 42:01.50 |  3:52.27 |    189125    |   206551
       15  | 45:54.02 |  2:58.36 |    206552    |   219937
       16  | 48:52.38 |  2:44.51 |    219938    |   232288
       17  | 51:37.14 |  1:32.22 |    232289    |   239210
       18  | 53:09.36 |  1:51.53 |    239211    |   247588
       19  | 55:01.14 |  1:42.06 |    247589    |   255244
       20  | 56:43.20 |  2:13.68 |    255245    |   265287
       21  | 58:57.13 |  3:16.21 |    265288    |   280008
Range status and errors
Selected range
     Filename D:TempМикаэл Таривердиев - Мгновения - 2000Микаэл Таривердиев - Мгновения.wav
     Peak level 96.6 %
     Range quality 100.0 %
     Test CRC 05AED6D6
     Copy CRC 05AED6D6
     Copy OK
No errors occurred
AccurateRip summary
Track  1  accurately ripped (confidence 2)  [CA282A15]
Track  2  accurately ripped (confidence 2)  [45BE6990]
Track  3  accurately ripped (confidence 2)  [653CB0A4]
Track  4  accurately ripped (confidence 2)  [780DAB44]
Track  5  accurately ripped (confidence 2)  [4747FD8A]
Track  6  accurately ripped (confidence 2)  [32B90541]
Track  7  accurately ripped (confidence 2)  [62EAB1E3]
Track  8  accurately ripped (confidence 2)  [28270171]
Track  9  accurately ripped (confidence 2)  [570B43BF]
Track 10  accurately ripped (confidence 2)  [6435A4B0]
Track 11  accurately ripped (confidence 2)  [04A08272]
Track 12  accurately ripped (confidence 2)  [F918FE8D]
Track 13  accurately ripped (confidence 2)  [1EAACC87]
Track 14  accurately ripped (confidence 2)  [C366AD45]
Track 15  accurately ripped (confidence 2)  [61487DCB]
Track 16  accurately ripped (confidence 2)  [E3DB51DF]
Track 17  accurately ripped (confidence 2)  [BE0A9C92]
Track 18  accurately ripped (confidence 2)  [0E933746]
Track 19  accurately ripped (confidence 2)  [A4C6F3A2]
Track 20  accurately ripped (confidence 2)  [0E699666]
Track 21  accurately ripped (confidence 2)  [1E734D5F]
All tracks accurately ripped
End of status report
Яндекс.Метрика
Рейтинг@Mail.ru