Убойный футбол / Siu lam juk kau [2001] BDRip-AVC 60fps

 

Создавать темы 05-Июн-2015 22:13

-Убойный футбол / Siu lam juk kauГод выпуска: 2001
Страна: Гонконг, Китай
Жанр: комедия, спорт, боевик
Продолжительность: 01:52:22
Перевод: Дубляж
Субтитры: русские (Форсированные), русские (Полные)-Режиссер: Стивен Чоу / Stephen Chow-В ролях: Стивен Чоу (Mighty Steel Leg Sing), Чжао Вэй (Mui), Ман Тат Нг (Golden Leg Fung), Йин Тсе (Team Evil Coach Hung), Сесилия Чунг (Team Dragon Player #7), Карен Мок (Team Dragon Player #11), Винсент Кок (Team Puma Leader), Хуи Ли (Banana Peel Girl), Йут Феи Вонг (Iron Head (First Brother)), Кай Ман Тинь (Iron Shirt (Third Brother)), Чи Чунг Лам (Light Weight Vest (Small Brother)), Квок-Куен Чан (Lightning Hands (Fourth Brother))-Описание:
Шесть братьев под руководством опытного футбольного тренера создают непобедимую команду. Объединив неоценимый опыт древних мастеров кунг-фу и современную тактику футбольного боя, они подают заявку на участие в престижном футбольном первенстве с призом в миллион долларов...--Качество: BDRip-AVC 60fps
Формат: MKV
Видео кодек: AVC
Аудио кодек:AC3
Видео: AVC, 1024x576 (16:9), 4580 kbps, 59,940 fps, 0,130 bpp
Аудио: русский / AC3 / 5.1 / 48 kHz / 384 kbps / 16 bit |Дубляж + Оригинал на реж. вставки|
Навигация по главам: есть-

MI

General
Unique ID : 199591286283613421603134367347770816767 (0x9627E22C59C60F8585509386F3F678FF)
Complete name : A:\Фильмы\BDRip-avc\Убойный футбол BDrip-AVC 60fps.mkv
Format : Matroska
Format version : Version 4 / Version 2
File size : 3.90 GiB
Duration : 1h 52mn
Overall bit rate : 4 966 Kbps
Movie name : R.G HD-Films by Tiberiumsun69
Encoded date : UTC 2015-06-04 00:33:02
Writing application : mkvmerge v7.9.0 ('Birds') 64bit
Writing library : libebml v1.3.1 + libmatroska v1.4.2
Attachment : Yes
Video
ID : 1
Format : AVC
Format/Info : Advanced Video Codec
Format profile : [email protected]
Format settings, CABAC : Yes
Format settings, ReFrames : 4 frames
Codec ID : V_MPEG4/ISO/AVC
Duration : 1h 52mn
Bit rate : 4 580 Kbps
Width : 1 024 pixels
Height : 576 pixels
Display aspect ratio : 16:9
Frame rate : 59.940 fps
Color space : YUV
Chroma subsampling : 4:2:0
Bit depth : 8 bits
Scan type : Progressive
Bits/(Pixel*Frame) : 0.130
Stream size : 3.52 GiB (90%)
Title : R.G HD-Films by Tiberiumsun69
Writing library : x264 core 146 r2538 121396c
Encoding settings : cabac=1 / ref=4 / deblock=1:0:0 / analyse=0x3:0x113 / me=umh / subme=11 / psy=1 / psy_rd=1.00:0.10 / mixed_ref=1 / me_range=32 / chroma_me=1 / trellis=2 / 8x8dct=1 / cqm=0 / deadzone=21,11 / fast_pskip=0 / chroma_qp_offset=-3 / threads=12 / lookahead_threads=1 / sliced_threads=0 / nr=0 / decimate=1 / interlaced=0 / bluray_compat=0 / constrained_intra=0 / bframes=3 / b_pyramid=2 / b_adapt=2 / b_bias=0 / direct=3 / weightb=1 / open_gop=0 / weightp=2 / keyint=600 / keyint_min=59 / scenecut=40 / intra_refresh=0 / rc_lookahead=60 / rc=2pass / mbtree=1 / bitrate=4580 / ratetol=1.0 / qcomp=0.60 / qpmin=0 / qpmax=69 / qpstep=4 / cplxblur=20.0 / qblur=0.5 / vbv_maxrate=50000 / vbv_bufsize=62500 / nal_hrd=none / filler=0 / ip_ratio=1.40 / aq=1:1.00
Language : English
Default : Yes
Forced : No
Audio
ID : 2
Format : AC-3
Format/Info : Audio Coding 3
Mode extension : CM (complete main)
Codec ID : A_AC3
Duration : 1h 52mn
Bit rate mode : Constant
Bit rate : 384 Kbps
Channel(s) : 6 channels
Channel positions : Front: L C R, Side: L R, LFE
Sampling rate : 48.0 KHz
Bit depth : 16 bits
Compression mode : Lossy
Stream size : 309 MiB (8%)
Title : Дубляж + Оригинал (На реж. Вставки)
Language : Russian
Default : Yes
Forced : No
Text #1
ID : 3
Format : UTF-8
Codec ID : S_TEXT/UTF8
Codec ID/Info : UTF-8 Plain Text
Title : Форсированные
Language : Russian
Default : Yes
Forced : No
Text #2
ID : 4
Format : UTF-8
Codec ID : S_TEXT/UTF8
Codec ID/Info : UTF-8 Plain Text
Title : Полные
Language : Russian
Default : No
Forced : No
Menu
00:00:00.000 : en:Chapter 1
00:07:43.922 : en:Chapter 2
00:17:35.763 : en:Chapter 3
00:25:53.677 : en:Chapter 4
00:34:04.876 : en:Chapter 5
00:42:56.657 : en:Chapter 6
00:49:27.882 : en:Chapter 7
01:00:12.442 : en:Chapter 8
01:10:49.245 : en:Chapter 9
01:23:30.380 : en:Chapter 10
01:34:21.030 : en:Chapter 11
01:47:23.020 : en:Chapter 12

Скриншоты

Яндекс.Метрика
Рейтинг@Mail.ru