Хоббит: Нежданное путешествие / The Hobbit: An Unexpected Journey (2012) BDRip 720p | Extended | 60 fps

 

Создавать темы 05-Июн-2015 22:08

«From the smallest beginnings come the greatest legends»- Год выхода: 2012
Жанр: Фэнтези, приключения
Режиссер: Питер Джексон
Сценарий: Фрэнсис Уолш, Филиппа Бойенс, Питер Джексон
Продюсер: Кэролинн Каннингэм, Питер Джексон, Фрэнсис Уолш
Роли озвучивали: Мартин Фриман, Иэн МакКеллен, Ричард Армитедж, Джеймс Несбитт, Кен Стотт, Грэм МакТавиш, Дин О’Горман, Эйдан Тернер, Джед Брофи, Марк Хэдлоу--О фильме:
Фильм повествует о путешествии Бильбо Бэггинса, который пускается в грандиозный поход, целью которого является отвоевание утраченного королевства гномов Эребор у зловещего дракона Смауга. Совершенно неожиданно с хоббитом налаживает контакт волшебник Гэндальф Серый. Так Бильбо находит себя, присоединяясь к компании тринадцати гномов, возглавляемых легендарным воином, Торином Дубощитом. Их путешествие проляжет через Дикий Край, через предательские земли, населенные гоблинами и орками, смертоносными варгами и гигантскими пауками, народом, меняющим шкуры, и волшебниками.
И хотя их цель находится на Востоке среди пустошей Одинокой Горы, сначала им придется выбраться из туннелей гоблинов, где Бильбо встретит существо, которое изменит его жизнь навсегда... Голлума.
Здесь, один на один с Голлумом, на берегу подземного озера, непритязательный Бильбо Бэггинс обнаружит не только скрытые в глубине души хитрость и отвагу, которые удивят даже его, но и завладеет «прелестным» колечком Голлума, которое обладает нежданными и полезными свойствами... Простое золотое кольцо, c которым связана судьба всего Средиземья, нитями, о которых Бильбо не мог даже вообразить.
- -Страна: США, Новая Зеландия
Продолжительность: 03:02:31-Файл
Кодек: MPEG4/ISO/AVC H.264
Формат: MKV
Качество: BDRip 720p
Видео: 1280x534 | 59.940 fps | ~10.4 Мбит/сек
Аудио 1: AC3 | 5.1 | 48 kHz | 448 kbps | 16 bit | Дубляж |
Аудио 1: AC3 | 5.1 | 48 kHz | 448 kbps | 16 bit | Оригинал |
Субтитры:Русские | Полные/Форсирующие, Английские | Полные/Форсирующие

MedifInfo

Format : Matroska
Format version : Version 2
File size : 14.5 GiB
Duration : 3h 2mn
Overall bit rate : 11.4 Mbps
Movie name : Хоббит: Нежданное путешествие (2012).BDRip.720p.[envy].[60fps]
Encoded date : UTC 2013-11-13 19:32:05
Writing application : mkvmerge v5.8.0 ('No Sleep / Pillow') built on Sep 2 2012 15:37:04
Writing library : libebml v1.2.3 + libmatroska v1.3.0
Video
ID : 1
Format : AVC
Format/Info : Advanced Video Codec
Format profile : [email protected]
Format settings, CABAC : Yes
Format settings, ReFrames : 11 frames
Codec ID : V_MPEG4/ISO/AVC
Duration : 3h 2mn
Bit rate : 10.5 Mbps
Width : 1 280 pixels
Height : 534 pixels
Display aspect ratio : 2.40:1
Frame rate mode : Constant
Frame rate : 59.880 fps
Original frame rate : 59.940 fps
Color space : YUV
Chroma subsampling : 4:2:0
Bit depth : 8 bits
Scan type : Progressive
Bits/(Pixel*Frame) : 0.256
Stream size : 13.1 GiB (90%)
Title : Хоббит: Нежданное путешествие (2012).BDRip.720p.[envy].[60fps]
Writing library : x264 core 140 r2377 1ca7bb9
Encoding settings : cabac=1 / ref=11 / deblock=1:-3:-2 / analyse=0x3:0x133 / me=umh / subme=11 / psy=1 / psy_rd=1.00:0.00 / mixed_ref=1 / me_range=32 / chroma_me=1 / trellis=2 / 8x8dct=1 / cqm=0 / deadzone=21,11 / fast_pskip=0 / chroma_qp_offset=-2 / threads=12 / lookahead_threads=2 / sliced_threads=0 / nr=0 / decimate=1 / interlaced=0 / bluray_compat=0 / constrained_intra=0 / bframes=7 / b_pyramid=2 / b_adapt=2 / b_bias=0 / direct=3 / weightb=1 / open_gop=0 / weightp=2 / keyint=250 / keyint_min=25 / scenecut=40 / intra_refresh=0 / rc=2pass / mbtree=0 / bitrate=10480 / ratetol=2.0 / qcomp=0.60 / qpmin=0 / qpmax=69 / qpstep=4 / cplxblur=20.0 / qblur=0.5 / ip_ratio=1.40 / pb_ratio=1.30 / aq=1:0.70
Language : English
Default : Yes
Forced : No
Audio #1
ID : 2
Format : AC-3
Format/Info : Audio Coding 3
Mode extension : CM (complete main)
Format settings, Endianness : Big
Codec ID : A_AC3
Duration : 3h 2mn
Bit rate mode : Constant
Bit rate : 448 Kbps
Channel count : 6 channels
Channel positions : Front: L C R, Side: L R, LFE
Sampling rate : 48.0 KHz
Bit depth : 16 bits
Compression mode : Lossy
Stream size : 585 MiB (4%)
Title : Дубляж
Language : Russian
Default : Yes
Forced : No
Audio #2
ID : 3
Format : AC-3
Format/Info : Audio Coding 3
Mode extension : CM (complete main)
Format settings, Endianness : Big
Codec ID : A_AC3
Duration : 3h 2mn
Bit rate mode : Constant
Bit rate : 448 Kbps
Channel count : 6 channels
Channel positions : Front: L C R, Side: L R, LFE
Sampling rate : 48.0 KHz
Bit depth : 16 bits
Compression mode : Lossy
Stream size : 585 MiB (4%)
Title : Оригинал
Language : English
Default : No
Forced : No
Text #1
ID : 4
Format : UTF-8
Codec ID : S_TEXT/UTF8
Codec ID/Info : UTF-8 Plain Text
Title : rus force
Language : Russian
Default : Yes
Forced : Yes
Text #2
ID : 5
Format : UTF-8
Codec ID : S_TEXT/UTF8
Codec ID/Info : UTF-8 Plain Text
Title : rus
Language : Russian
Default : No
Forced : No
Text #3
ID : 6
Format : UTF-8
Codec ID : S_TEXT/UTF8
Codec ID/Info : UTF-8 Plain Text
Title : eng force
Language : English
Default : No
Forced : No
Text #4
ID : 7
Format : UTF-8
Codec ID : S_TEXT/UTF8
Codec ID/Info : UTF-8 Plain Text
Title : eng
Language : English
Default : No
Forced : No
Menu
00:00:00.000 : :Chapter 01
00:10:11.902 : :Chapter 02
00:14:08.722 : :Chapter 03
00:17:27.253 : :Chapter 04
00:18:44.623 : :Chapter 05
00:23:16.603 : :Chapter 06
00:27:59.469 : :Chapter 07
00:36:04.871 : :Chapter 08
00:41:17.266 : :Chapter 09
00:46:30.829 : :Chapter 10
00:53:04.181 : :Chapter 11
00:58:07.650 : :Chapter 12
00:59:55.300 : :Chapter 13
01:10:42.404 : :Chapter 14
01:15:01.830 : :Chapter 15
01:18:52.811 : :Chapter 16
01:24:56.925 : :Chapter 17
01:30:34.429 : :Chapter 18
01:34:10.603 : :Chapter 19
01:37:24.463 : :Chapter 20
01:39:03.479 : :Chapter 21
01:41:40.803 : :Chapter 22
01:50:22.532 : :Chapter 23
01:52:59.773 : :Chapter 24
01:59:06.347 : :Chapter 25
02:03:57.513 : :Chapter 26
02:09:51.575 : :Chapter 27
02:23:21.426 : :Chapter 28
02:25:18.876 : :Chapter 29
02:26:31.199 : :Chapter 30
02:30:52.918 : :Chapter 31
02:33:00.546 : :Chapter 32
02:35:52.593 : :Chapter 33
02:46:51.209 : :Chapter 34
02:52:21.372 : :Chapter 35
03:02:30.147 : :Chapter 36

Скриншоты:

Яндекс.Метрика
Рейтинг@Mail.ru