[ Сегодня на трекере фрилич! Идет свободное скачивание без начисления Download ]

Снайпер / American Sniper (2014) BDRip 1080p | 60 FPS

 

Создавать темы 05-Июн-2015 22:00

Снайпер / American Sniper
-Год выпуска: 2014
Страна: США
Жанр: боевик, триллер, военный, биография
Продолжительность: 02:12:39
Перевод: Дубляж
Субтитры: русские (Форсированные), русские (Полные), украинские (Форсированные), украинские (Полные), английские (Полные)-Режиссер: Клинт Иствуд / Clint Eastwood-В ролях: Брэдли Купер (Chris Kyle), Сиенна Миллер (Taya), Кайл Галлнер (Goat-Winston), Коул Конис (Young Chris Kyle), Бен Рид (Wayne Kyle), Элиз Робертсон (Deby Kyle), Люк Саншайн (Young Jeff Kyle), Трой Винсент (Pastor), Брэндон Сальгадо (Bully), Кейр О’Доннелл (Jeff Kyle), Марне Паттерсон (Sarah), Джейсон Холл (Cowboy)-Описание:
Экранизация мемуаров «морского котика» из Техаса Криса Кайла, который служил снайпером в Ираке и стал рекордсменом по числу убитых солдат противника, за что иракцы прозвали его дьяволом. Кроме самой войны, фильм рассказывает о воспоминаниях жены Криса, которая была свидетелем растущей привязанности мужа к его сослуживцам.-Рейтинг
-Качество: BDRip 1080p / 60 FPS
Формат: MKV
Видео кодек: AVC
Аудио кодек:AC3
Видео: AVC, 1920x800 (2.40:1), 13800 kbps, 59,940 fps, 0,150 bpp
Аудио №1: русский / AC3 / 5.1 / 48 kHz / 448 kbps / 16 bit |Дубляж|
Аудио №2: украинский / AC3 / 2.0 / 48 kHz / 192 kbps / 16 bit|Дубляж iTunes|
Аудио №3: английский / AC3 / 5.1 / 48 kHz / 640 kbps / 16 bit
Навигация по главам: есть-

MI

General
Unique ID : 221377170310031051993056663407020893573 (0xA68BB12F74E36AC697CF16F91B026585)
Complete name : A:\Фильмы\1080p\Снайпер 2014 1080p 60fps.mkv
Format : Matroska
Format version : Version 4 / Version 2
File size : 14.0 GiB
Duration : 2h 12mn
Overall bit rate : 15.1 Mbps
Movie name : R.G HD-Films by Tiberiumsun69
Encoded date : UTC 2015-05-29 11:07:13
Writing application : mkvmerge v7.9.0 ('Birds') 64bit
Writing library : libebml v1.3.1 + libmatroska v1.4.2
Attachment : Yes
Video
ID : 1
Format : AVC
Format/Info : Advanced Video Codec
Format profile : [email protected]
Format settings, CABAC : Yes
Format settings, ReFrames : 4 frames
Codec ID : V_MPEG4/ISO/AVC
Duration : 2h 12mn
Bit rate : 13.8 Mbps
Width : 1 920 pixels
Height : 800 pixels
Display aspect ratio : 2.40:1
Frame rate : 59.940 fps
Color space : YUV
Chroma subsampling : 4:2:0
Bit depth : 8 bits
Scan type : Progressive
Bits/(Pixel*Frame) : 0.150
Stream size : 12.5 GiB (90%)
Title : R.G HD-Films by Tiberiumsun69
Writing library : x264 core 146 r2538 121396c
Encoding settings : cabac=1 / ref=4 / deblock=1:0:0 / analyse=0x3:0x113 / me=umh / subme=11 / psy=1 / psy_rd=1.00:0.10 / mixed_ref=1 / me_range=32 / chroma_me=1 / trellis=2 / 8x8dct=1 / cqm=0 / deadzone=21,11 / fast_pskip=0 / chroma_qp_offset=-3 / threads=12 / lookahead_threads=1 / sliced_threads=0 / nr=0 / decimate=1 / interlaced=0 / bluray_compat=0 / constrained_intra=0 / bframes=3 / b_pyramid=2 / b_adapt=2 / b_bias=0 / direct=3 / weightb=1 / open_gop=0 / weightp=2 / keyint=600 / keyint_min=59 / scenecut=40 / intra_refresh=0 / rc_lookahead=60 / rc=2pass / mbtree=1 / bitrate=13800 / ratetol=1.0 / qcomp=0.60 / qpmin=0 / qpmax=69 / qpstep=4 / cplxblur=20.0 / qblur=0.5 / vbv_maxrate=50000 / vbv_bufsize=62500 / nal_hrd=none / filler=0 / ip_ratio=1.40 / aq=1:1.00
Language : English
Default : Yes
Forced : No
Audio #1
ID : 2
Format : AC-3
Format/Info : Audio Coding 3
Mode extension : CM (complete main)
Codec ID : A_AC3
Duration : 2h 12mn
Bit rate mode : Constant
Bit rate : 448 Kbps
Channel(s) : 6 channels
Channel positions : Front: L C R, Side: L R, LFE
Sampling rate : 48.0 KHz
Bit depth : 16 bits
Compression mode : Lossy
Stream size : 425 MiB (3%)
Title : Дубляж
Language : Russian
Default : Yes
Forced : No
Audio #2
ID : 3
Format : AC-3
Format/Info : Audio Coding 3
Mode extension : CM (complete main)
Codec ID : A_AC3
Duration : 2h 12mn
Bit rate mode : Constant
Bit rate : 192 Kbps
Channel(s) : 2 channels
Channel positions : Front: L R
Sampling rate : 48.0 KHz
Bit depth : 16 bits
Compression mode : Lossy
Stream size : 182 MiB (1%)
Title : Дубляж itunes
Language : Ukrainian
Default : No
Forced : No
Audio #3
ID : 4
Format : AC-3
Format/Info : Audio Coding 3
Mode extension : CM (complete main)
Codec ID : A_AC3
Duration : 2h 12mn
Bit rate mode : Constant
Bit rate : 640 Kbps
Channel(s) : 6 channels
Channel positions : Front: L C R, Side: L R, LFE
Sampling rate : 48.0 KHz
Bit depth : 16 bits
Compression mode : Lossy
Stream size : 607 MiB (4%)
Title : Оригинал
Language : English
Default : No
Forced : No
Text #1
ID : 5
Format : UTF-8
Codec ID : S_TEXT/UTF8
Codec ID/Info : UTF-8 Plain Text
Title : Форсированные
Language : Russian
Default : Yes
Forced : No
Text #2
ID : 6
Format : UTF-8
Codec ID : S_TEXT/UTF8
Codec ID/Info : UTF-8 Plain Text
Title : Полные
Language : Russian
Default : No
Forced : No
Text #3
ID : 7
Format : UTF-8
Codec ID : S_TEXT/UTF8
Codec ID/Info : UTF-8 Plain Text
Title : Форсированные
Language : Ukrainian
Default : No
Forced : No
Text #4
ID : 8
Format : UTF-8
Codec ID : S_TEXT/UTF8
Codec ID/Info : UTF-8 Plain Text
Title : Полные
Language : Ukrainian
Default : No
Forced : No
Text #5
ID : 9
Format : UTF-8
Codec ID : S_TEXT/UTF8
Codec ID/Info : UTF-8 Plain Text
Title : Полные
Language : English
Default : No
Forced : No
Menu
00:00:00.000 : en:Chapter 1
00:10:15.240 : en:Chapter 2
00:18:56.927 : en:Chapter 3
00:28:27.581 : en:Chapter 4
00:39:04.425 : en:Chapter 5
00:50:57.638 : en:Chapter 6
01:00:06.728 : en:Chapter 7
01:07:56.447 : en:Chapter 8
01:28:44.027 : en:Chapter 9
01:37:24.714 : en:Chapter 10
01:45:57.351 : en:Chapter 11
01:54:44.002 : en:Chapter 12
02:04:13.363 : en:Chapter 13

Скриншоты

Яндекс.Метрика
Рейтинг@Mail.ru