Разборка в Бронксе / Rumble In The Bronx (1995 г.) BDRip AVC | 60fps

 

Создавать темы 05-Июн-2015 21:58

Разборка в Бронксе / Rumble In The Bronx
Год выпуска: 1995 г.
Жанр: Боевик, триллер, комедия, криминал
Страна: Гонконг, Канада
Режиссер: Стэнли Тонг
Продолжительность: 01:28:34
Перевод: Профессиональный (многоголосый закадровый)-В ролях: Джеки Чан / Jackie Chan (Keung, $ 4 000 000 ), Анита Муи / Anita Mui (Elaine), Франсуаза Йип / Françoise Yip (Nancy), Билл Тун / Bill Tung (Uncle Bill), Марк Экерстрим / Marc Akerstream (Tony), Гарвин Кросс / Garvin Cross (Angelo), Морган Лам / Morgan Lam (Danny), Эйлен Сит / Ailen Sit (Tony's Gang Member)-Описание: Кеунг, полицейский из Гонконга, приезжает к своему дяде в Америку на свадьбу. Дядя как раз продал свой супермаркет красивой китаянке, ни слова не сказав новой хозяйке о том, что на магазин имеют виды бандиты, и уехал. Кеунг, конечно же, заступается за симпатичную бизнес-леди и устраивает рэкетирам разборку. Но на этом подвиги азиатского полицейского в нью-йоркских кварталах не заканчиваются! Кеунг начинает жесткое противостояние гангстерам в деле о пропаже бриллиантов…-Формат видео: MKV
Качество видео: BDRip AVC| 60fps
Видео кодек: AVC
Аудио кодек: AC3
Видео: 1024x424 (2.40:1), 59.940 fps, AVC, 3 893 Kbps
Аудио: AC3, 640 Kbps, 48.0 KHz, 6 ch [West Video - Профессиональный многоголосый]-

Отчёт MediaInfo

General
Complete name : Разборка в Бронксе 60fps.mkv
Format : Matroska
File size : 2.80 GiB
Duration : 1h 28mn
Overall bit rate : 4 533 Kbps
Encoded date : UTC 2015-05-30 09:57:54
Writing application : mkvmerge v7.0.0 ('Where We Going') 64bit built on Jun 9 2014 15:16:27
Writing library : libebml v1.3.0 + libmatroska v1.4.1
Video
ID : 1
Format : AVC
Format/Info : Advanced Video Codec
Format profile : [email protected]
Format settings, CABAC : Yes
Format settings, ReFrames : 11 frames
Muxing mode : Container [email protected]
Codec ID : V_MPEG4/ISO/AVC
Duration : 1h 28mn
Bit rate : 3 893 Kbps
Width : 1 024 pixels
Height : 424 pixels
Display aspect ratio : 2.40:1
Frame rate : 59.940 fps
Color space : YUV
Chroma subsampling : 4:2:0
Bit depth : 8 bits
Scan type : Progressive
Bits/(Pixel*Frame) : 0.150
Stream size : 2.35 GiB (84%)
Writing library : x264 core 146 r2538 121396c
Encoding settings : cabac=1 / ref=11 / deblock=1:0:0 / analyse=0x3:0x113 / me=umh / subme=11 / psy=1 / psy_rd=1.00:0.00 / mixed_ref=1 / me_range=32 / chroma_me=1 / trellis=2 / 8x8dct=1 / cqm=0 / deadzone=21,11 / fast_pskip=1 / chroma_qp_offset=-2 / threads=12 / lookahead_threads=1 / sliced_threads=0 / nr=0 / decimate=1 / interlaced=0 / bluray_compat=0 / constrained_intra=0 / bframes=3 / b_pyramid=2 / b_adapt=1 / b_bias=0 / direct=1 / weightb=1 / open_gop=0 / weightp=2 / keyint=600 / keyint_min=59 / scenecut=40 / intra_refresh=0 / rc_lookahead=40 / rc=2pass / mbtree=1 / bitrate=3893 / ratetol=1.0 / qcomp=0.60 / qpmin=0 / qpmax=69 / qpstep=4 / cplxblur=20.0 / qblur=0.5 / vbv_maxrate=50000 / vbv_bufsize=62500 / nal_hrd=none / filler=0 / ip_ratio=1.40 / aq=1:1.00
Audio
ID : 2
Format : AC-3
Format/Info : Audio Coding 3
Mode extension : CM (complete main)
Codec ID : A_AC3
Duration : 1h 28mn
Bit rate mode : Constant
Bit rate : 640 Kbps
Channel(s) : 6 channels
Channel positions : Front: L C R, Side: L R, LFE
Sampling rate : 48.0 KHz
Bit depth : 16 bits
Stream size : 406 MiB (14%)
Title : West Video [Профессиональный Многоголосый]
Language : Russian

Скриншоты:

Яндекс.Метрика
Рейтинг@Mail.ru