Я, робот / I, Robot (2004 г.) BDRip 1080p | 60fps

 

Создавать темы 04-Июн-2015 22:41

Я, робот / I, Robot Год выпуска: 2004.
Жанр: фантастика, боевик, триллер, детектив
Страна: США, Германия-Производство: 20th Century Fox Film Corporation
Режиссер: Алекс Пройас (Ворон (1994), Темный город)
Продолжительность: 115 мин. / 01:55-Перевод: Профессиональный (дублированный)
Перевод 2: Профессиональный (двухголосый закадровый)
Перевод 3: Авторский (А. Гаврилов)
Перевод 4: Авторский (Ю. Живов)-В ролях: Уилл Смит, Бриджет Мойнэан, Алан Тьюдик, Джеймс Кромуэлл, Брюс Гринвуд, Шайа ЛаБаф, Адриан Рикард, Чи МакБрайд, Джерри Вассерман, Фиона Хоган, Питер Шинкода, Терри Чен, Дэвид Нэйсом, Скотт Хейндл, Шарон Уилкинс, Крэйг Марч, Kyanna Cox, Даррен Мур, Аарон Дуглас, Шейла Дайсон, Бобби Л. Стюарт, Николя Кросби
Описание: Действие фильма происходит в будущем (2035 г.), где роботы являются обычными помощниками человека. Главный герой — полицейский, «не переваривающий» роботов, расследует дело об убийстве, в которое оказывается вовлечен робот.
Речь идет о возможном нарушении «Закона о Роботах» (робот никогда не поднимет руки на человека), что в принципе невозможно. Ситуация близка к катастрофической: если машины могут нарушать этот закон, то уже ничто не остановит их от захвата контроля над людьми, тем более, что человечество уже давно стало полностью зависимо от роботов…
Спецэффекты: Weta Digital

Формат видео: MKV
Качество видео: BDRip 1080p | 60fps
Видео кодек: x264
Аудио кодек: AC3
Видео: 1920x1080, 14910 Кбит/сек, 59.940 кадр/сек, AVC, x264, [email protected], 16:9, 0.120 Бит/[Пиксели*Кадры], 2pass
Аудио: AC-3, 448 Кбит/сек, 6 канала(ов), 48,0 КГц - Дублированный / Русский
Аудио 2: AC-3, 448 Кбит/сек, 6 канала(ов), 48,0 КГц - Двухголосный закадровый, Tycoon / Русский
Аудио 3: AC-3, 448 Кбит/сек, 6 канала(ов), 48,0 КГц - Одноголосый закадровый, А. Гаврилов / Русский
Аудио 4: AC-3, 448 Кбит/сек, 6 канала(ов), 48,0 КГц - Одноголосый закадровый, Ю. Живов / Русский
Аудио 5: AC-3, 640 Кбит/сек, 6 канала(ов), 48,0 КГц - Оригинал / Английский
Субтитры: Русские | Полные, Английские | Полные
Чаптеры (Главы): Есть

Отчёт MediaInfo

Format : Matroska
Format version : Version 2
File size : 13.9 GiB
Duration : 1h 54mn
Overall bit rate : 17.3 Mbps
Movie name : Я, робот.(2004).BDRip.1080p.[envy].[60fps]
Encoded date : UTC 2014-01-22 06:35:12
Writing application : mkvmerge v5.8.0 ('No Sleep / Pillow') built on Sep 2 2012 15:37:04
Writing library : libebml v1.2.3 + libmatroska v1.3.0
Video
ID : 1
Format : AVC
Format/Info : Advanced Video Codec
Format profile : [email protected]
Format settings, CABAC : Yes
Format settings, ReFrames : 4 frames
Codec ID : V_MPEG4/ISO/AVC
Duration : 1h 54mn
Bit rate : 14.9 Mbps
Width : 1 920 pixels
Height : 1 080 pixels
Display aspect ratio : 16:9
Frame rate mode : Constant
Frame rate : 59.880 fps
Original frame rate : 59.940 fps
Color space : YUV
Chroma subsampling : 4:2:0
Bit depth : 8 bits
Scan type : Progressive
Bits/(Pixel*Frame) : 0.120
Stream size : 11.6 GiB (84%)
Title : Я, робот.(2004).BDRip.1080p.[envy].[60fps]
Writing library : x264 core 140 r2377 1ca7bb9
Encoding settings : cabac=1 / ref=4 / deblock=1:0:0 / analyse=0x3:0x133 / me=umh / subme=11 / psy=1 / psy_rd=1.00:0.00 / mixed_ref=1 / me_range=32 / chroma_me=1 / trellis=2 / 8x8dct=1 / cqm=0 / deadzone=21,11 / fast_pskip=0 / chroma_qp_offset=-2 / threads=12 / lookahead_threads=1 / sliced_threads=0 / nr=0 / decimate=1 / interlaced=0 / bluray_compat=0 / constrained_intra=0 / bframes=5 / b_pyramid=2 / b_adapt=2 / b_bias=0 / direct=3 / weightb=1 / open_gop=0 / weightp=2 / keyint=250 / keyint_min=25 / scenecut=40 / intra_refresh=0 / rc=2pass / mbtree=0 / bitrate=14910 / ratetol=2.0 / qcomp=0.60 / qpmin=0 / qpmax=69 / qpstep=4 / cplxblur=20.0 / qblur=0.5 / ip_ratio=1.40 / pb_ratio=1.30 / aq=1:0.90
Language : English
Default : Yes
Forced : No
Audio #1
ID : 2
Format : AC-3
Format/Info : Audio Coding 3
Mode extension : CM (complete main)
Format settings, Endianness : Big
Codec ID : A_AC3
Duration : 1h 54mn
Bit rate mode : Constant
Bit rate : 448 Kbps
Channel count : 6 channels
Channel positions : Front: L C R, Side: L R, LFE
Sampling rate : 48.0 KHz
Bit depth : 16 bits
Compression mode : Lossy
Stream size : 368 MiB (3%)
Title : Dub
Language : Russian
Default : Yes
Forced : No
Audio #2
ID : 3
Format : AC-3
Format/Info : Audio Coding 3
Mode extension : CM (complete main)
Format settings, Endianness : Big
Codec ID : A_AC3
Duration : 1h 54mn
Bit rate mode : Constant
Bit rate : 448 Kbps
Channel count : 6 channels
Channel positions : Front: L C R, Side: L R, LFE
Sampling rate : 48.0 KHz
Bit depth : 16 bits
Compression mode : Lossy
Stream size : 368 MiB (3%)
Title : Tycoon
Language : Russian
Default : No
Forced : No
Audio #3
ID : 4
Format : AC-3
Format/Info : Audio Coding 3
Mode extension : CM (complete main)
Format settings, Endianness : Big
Codec ID : A_AC3
Duration : 1h 54mn
Bit rate mode : Constant
Bit rate : 448 Kbps
Channel count : 6 channels
Channel positions : Front: L C R, Side: L R, LFE
Sampling rate : 48.0 KHz
Bit depth : 16 bits
Compression mode : Lossy
Stream size : 368 MiB (3%)
Title : Gavrilov
Language : Russian
Default : No
Forced : No
Audio #4
ID : 5
Format : AC-3
Format/Info : Audio Coding 3
Mode extension : CM (complete main)
Format settings, Endianness : Big
Codec ID : A_AC3
Duration : 1h 54mn
Bit rate mode : Constant
Bit rate : 448 Kbps
Channel count : 6 channels
Channel positions : Front: L C R, Side: L R, LFE
Sampling rate : 48.0 KHz
Bit depth : 16 bits
Compression mode : Lossy
Stream size : 368 MiB (3%)
Title : Zhivov
Language : Russian
Default : No
Forced : No
Audio #5
ID : 6
Format : AC-3
Format/Info : Audio Coding 3
Mode extension : CM (complete main)
Format settings, Endianness : Big
Codec ID : A_AC3
Duration : 1h 54mn
Bit rate mode : Constant
Bit rate : 640 Kbps
Channel count : 6 channels
Channel positions : Front: L C R, Side: L R, LFE
Sampling rate : 48.0 KHz
Bit depth : 16 bits
Compression mode : Lossy
Stream size : 525 MiB (4%)
Title : Eng
Language : English
Default : No
Forced : No
Text #1
ID : 7
Format : UTF-8
Codec ID : S_TEXT/UTF8
Codec ID/Info : UTF-8 Plain Text
Title : rus full
Language : Russian
Default : No
Forced : No
Text #2
ID : 8
Format : UTF-8
Codec ID : S_TEXT/UTF8
Codec ID/Info : UTF-8 Plain Text
Title : eng full
Language : English
Default : No
Forced : No
Menu
00:00:00.000 : :Chapter 01
00:01:46.938 : :Chapter 02
00:03:30.251 : :Chapter 03
00:06:18.544 : :Chapter 04
00:07:57.519 : :Chapter 05
00:10:19.701 : :Chapter 06
00:12:11.230 : :Chapter 07
00:15:35.308 : :Chapter 08
00:17:47.983 : :Chapter 09
00:22:51.868 : :Chapter 10
00:26:14.030 : :Chapter 11
00:26:59.242 : :Chapter 12
00:33:23.167 : :Chapter 13
00:36:03.577 : :Chapter 14
00:41:23.523 : :Chapter 15
00:46:07.889 : :Chapter 16
00:49:06.025 : :Chapter 17
00:52:14.505 : :Chapter 18
00:55:22.277 : :Chapter 19
00:58:31.717 : :Chapter 20
01:00:06.769 : :Chapter 21
01:01:08.664 : :Chapter 22
01:07:56.113 : :Chapter 23
01:08:18.094 : :Chapter 24
01:10:24.302 : :Chapter 25
01:13:17.225 : :Chapter 26
01:16:53.818 : :Chapter 27
01:18:39.465 : :Chapter 28
01:20:14.225 : :Chapter 29
01:21:18.289 : :Chapter 30
01:21:57.453 : :Chapter 31
01:27:29.536 : :Chapter 32
01:28:57.666 : :Chapter 33
01:32:59.657 : :Chapter 34
01:34:45.137 : :Chapter 35
01:38:09.466 : :Chapter 36
01:41:10.898 : :Chapter 37
01:44:15.416 : :Chapter 38
01:45:02.755 : :Chapter 39

Скриншоты:

Яндекс.Метрика
Рейтинг@Mail.ru