David Guetta Feat. Sia - She Wolf (2012) Master 1080p | 60 fps

 

Создавать темы 04-Июн-2015 22:22

David Guetta Feat. Sia - She Wolf (2012) Master 1080p | 60 fps
Информация о Клипе:
Исполнители: David Guetta Feat. Sia
Название: She Wolf
Год выпуска: 2012 г.
Жанр: Поп
Продолжительность: 00:03:56
Файл:
Формат видео: MKV
Качество видео: Master 1080p | 60 fps
Видео кодек: H.264
Аудио кодек: AC3
Видео: 1920x752 | 59.940 fps | 19,1 Мбит/сек
Аудио: AC3 | 2 channels | 48 kHz | 384 Кбит/сек
Автор Рипа: Kamikkadze

MediaInfo

Видео
Идентификатор : 1
Формат : AVC
Формат/Информация : Advanced Video Codec
Профиль формата : [email protected]
Параметр CABAC формата : Да
Параметр ReFrames формата : 4 кадра
Идентификатор кодека : V_MPEG4/ISO/AVC
Продолжительность : 3 м. 56 с.
Битрейт : 19,1 Мбит/сек
Ширина : 1920 пикселей
Высота : 752 пикселя
Соотношение сторон : 2,553
Режим частоты кадров : Постоянный
Частота кадров : 59,880 кадров/сек
Частота кадров в оригинале : 59,940 кадров/сек
Цветовое пространство : YUV
Субдискретизация насыщенности : 4:2:0
Битовая глубина : 8 бит
Тип развёртки : Прогрессивная
Бит/(Пиксели*Кадры) : 0.221
Размер потока : 527 Мбайт (96%)
Заголовок : David Guetta Feat. Sia She Wolf - « R.G 60-FPS Rip By Kamikkadze »
Библиотека кодирования : x264 core 146 r2538 121396c
Настройки программы : cabac=1 / ref=3 / deblock=1:0:0 / analyse=0x3:0x113 / me=hex / subme=7 / psy=1 / psy_rd=1.00:0.00 / mixed_ref=1 / me_range=16 / chroma_me=1 / trellis=1 / 8x8dct=1 / cqm=0 / deadzone=21,11 / fast_pskip=1 / chroma_qp_offset=-2 / threads=6 / lookahead_threads=1 / sliced_threads=0 / nr=0 / decimate=1 / interlaced=0 / bluray_compat=0 / constrained_intra=0 / bframes=3 / b_pyramid=2 / b_adapt=1 / b_bias=0 / direct=1 / weightb=1 / open_gop=0 / weightp=2 / keyint=250 / keyint_min=25 / scenecut=40 / intra_refresh=0 / rc_lookahead=40 / rc=2pass / mbtree=1 / bitrate=19100 / ratetol=1.0 / qcomp=0.60 / qpmin=0 / qpmax=69 / qpstep=4 / cplxblur=20.0 / qblur=0.5 / ip_ratio=1.40 / aq=1:1.00
Default : Да
Forced : Нет
Аудио
Идентификатор : 2
Формат : AC-3
Формат/Информация : Audio Coding 3
Расширение режима : CM (complete main)
Параметр Endianness формата : Big
Идентификатор кодека : A_AC3
Продолжительность : 3 м. 56 с.
Вид битрейта : Постоянный
Битрейт : 384 Кбит/сек
Каналы : 2 канала
Расположение каналов : Front: L R
Частота : 44,1 КГц
Метод сжатия : С потерями
Размер потока : 10,8 Мбайт (2%)
Default : Да
Forced : Нет

Скриншоты:

Яндекс.Метрика
Рейтинг@Mail.ru