[ Сегодня на трекере фрилич! Идет свободное скачивание без начисления Download ]

В порту / On the Waterfront (1954) BDRemux [1080p]

 

Создавать темы 05-Окт-2013 12:48

-В порту / On the Waterfront«It walked away with just about every award there was - and it still could !»- Год выпуска: 1954
Жанр: Драма, Криминал
Описание фильма:
В центре сюжета судьба простого докера — Терри Мэллоу, терзающегося сомнениями и решающего встать на путь восстановления справедливости, после того как выясняется, что он работает на настоящего гангстера — коррумпированного босса портовых докеров Джонни Фрэндли.
Режиссер: Элиа Казан / Elia Kazan
Сценарий: Бадд Шульберг, Малкольм Джонсон
Продюсер: Сэм Шпигель
Оператор: Борис Кауфман
Композитор: Леонард Бернстайн
Художник: Ричард Дэй
Актеры: Марлон Брандо, Карл Молден, Ли Дж. Кобб, Род Стайгер, Пэт Хеннинг, Лейф Эриксон, Джеймс Уэстерфилд, Тони Галенто, Тами Морьелло, Джон Ф. Хэмилтон, Джон Хелдабрэнд, Руди Бонд, Дон Блэкман, Артур Кигэн, Абе Саймон, Ева Мари Сэйнт, Мартин Болсам, Дэн Бергин, Захари Чарльз, Джир Делани, Майкл В. Гаццо, Фред Гуинн-Продолжительность: 01:47:54
Качество видео: BDRemux 1080p
Перевод: Двухголосый закадровый
Язык субтитров: Русские, английские
Оригинальная аудиодорожка: английский-
Дата мировой премьеры: 24 июня 1954
Бюджет: $910 000
Сборы в США: $9 600 000

Награды

Оскар, 1955 год
Победитель (8):
Лучший фильм
Лучшая мужская роль (Марлон Брандо)
Лучшая женская роль второго плана (Ева Мари Сэйнт)
Лучший режиссер (Элиа Казан)
Лучший сценарий
Лучшая работа оператора (ч/б фильмы)
Лучшая работа художника (ч/б фильмы)
Лучший монтаж
Номинации (4):
Лучшая мужская роль второго плана (Карл Молден)
Лучшая мужская роль второго плана (Род Стайгер)
Лучшая мужская роль второго плана (Ли Дж. Кобб)
Лучший саундтрек для драматических/комедийных картин
Видео: MPEG-4 AVC, ~ 22.5 Мбит/с, 1920x1080, 23.976 кадр/с
Аудио 01: Русский, DTS, 6 ch, 1510 Кбит/с (Двухголосый закадровый)
Аудио 02: Английский, DTS-HD MA, 6 ch, 3362 Кбит/с
Аудио 03: Английский, AC3, 2 ch, 192 Кбит/с (Комментарии)

MediaInfo

Общее
Уникальный идентификатор : 195146481383998532516326001689976200525 (0x92CFD85F48CFEB0198496DA657455D4D)
Полное имя : E:\Художественные Фильмы\On.the.Waterfront.1954.BluRay.REMUX.1080p.mkv
Формат : Matroska
Версия формата : Version 4 / Version 2
Размер файла : 20,7 Гбайт
Продолжительность : 1 ч. 47 м.
Режим общего битрейта : Переменный
Общий поток : 27,5 Мбит/сек
Название фильма : PiratCa - HDtarcker
Дата кодирования : UTC 2013-03-09 06:59:46
Программа кодирования : mkvmerge v6.0.0 ('Coming Up For Air') built on Jan 20 2013 09:52:00
Библиотека кодирования : libebml v1.3.0 + libmatroska v1.4.0
Видео
Идентификатор : 1
Формат : AVC
Формат/Информация : Advanced Video Codec
Профиль формата : [url=mailto:[email protected]][email protected][/url]
Параметр CABAC формата : Да
Параметр ReFrames формата : 4 кадра
Идентификатор кодека : V_MPEG4/ISO/AVC
Продолжительность : 1 ч. 47 м.
Вид битрейта : Переменный
Максимальный битрейт : 37,0 Мбит/сек
Ширина : 1920 пикселей
Высота : 1080 пикселей
Соотношение сторон : 16:9
Режим частоты кадров : Постоянный
Частота кадров : 23,976 кадра/сек
Цветовое пространство : YUV
Субдискретизация насыщенности : 4:2:0
Битовая глубина : 8 бит
Тип развёртки : Прогрессивная
Default : Да
Forced : Нет
Аудио #1
Идентификатор : 2
Формат : DTS
Формат/Информация : Digital Theater Systems
Режим : 16
Параметр Endianness формата : Big
Идентификатор кодека : A_DTS
Продолжительность : 1 ч. 47 м.
Вид битрейта : Постоянный
Битрейт : 1509 Кбит/сек
Каналы : 6 каналов
Расположение каналов : Front: L C R, Side: L R, LFE
Частота : 48,0 КГц
Битовая глубина : 24 бит
Метод сжатия : С потерями
Размер потока : 1,14 Гбайт (5%)
Язык : Russian
Default : Да
Forced : Нет
Аудио #2
Идентификатор : 3
Формат : DTS
Формат/Информация : Digital Theater Systems
Профиль формата : MA / Core
Режим : 16
Параметр Endianness формата : Big
Идентификатор кодека : A_DTS
Продолжительность : 1 ч. 47 м.
Вид битрейта : Переменный
Битрейт : Неизвестно / 1509 Кбит/сек
Каналы : 6 каналов
Расположение каналов : Front: L C R, Side: L R, LFE
Частота : 48,0 КГц
Битовая глубина : 24 бит
Метод сжатия : Без потерь / Lossy
Язык : English
Default : Нет
Forced : Нет
Аудио #3
Идентификатор : 4
Формат : AC-3
Формат/Информация : Audio Coding 3
Расширение режима : CM (complete main)
Параметр Endianness формата : Big
Идентификатор кодека : A_AC3
Продолжительность : 1 ч. 47 м.
Вид битрейта : Постоянный
Битрейт : 192 Кбит/сек
Каналы : 1 канал
Расположение каналов : Front: C
Частота : 48,0 КГц
Битовая глубина : 16 бит
Метод сжатия : С потерями
Размер потока : 148 Мбайт (1%)
Заголовок : Commentary
Язык : English
Default : Нет
Forced : Нет
Текст #1
Идентификатор : 5
Формат : UTF-8
Идентификатор кодека : S_TEXT/UTF8
Идентификатор кодека/Информация : UTF-8 Plain Text
Язык : Russian
Default : Да
Forced : Нет
Текст #2
Идентификатор : 6
Формат : UTF-8
Идентификатор кодека : S_TEXT/UTF8
Идентификатор кодека/Информация : UTF-8 Plain Text
Язык : English
Default : Нет
Forced : Нет
Скриншоты: Время раздачи: с 10:00 до 23:30
Яндекс.Метрика
Рейтинг@Mail.ru