Большой / Big (Пенни Маршалл)[1988,Комедия, фэнтези, мелодрама, семейный, BDRip 1080р] от denis 100 | P, A | Theatrical Cut

 

Создавать темы 06-Дек-2013 16:08

Информация о фильме
Название: Большой
Оригинальное название: Big
Год выпуска: 1988
Жанр: Комедия, фэнтези, мелодрама, семейный
Выпущено: США, 20th Century Fox Film Corporation, Gracie Films
Режиссер: Пенни Маршалл
В ролях: Том Хэнкс, Элизабет Перкинс, Роберт Лоджа, Джон Хёрд, Дэвид Москоу, Джэред Раштон, Джон Ловиц, Мерседес Рул, Джош Кларк, Кимберли М. Дэвис, Оливер Блок, Эрика Кац, Аллан Вассерман, Марк Балу, Гари Ховард Клар, Алек Фон Соммер, Крис Доуден, Рокетс Редглэр, Джейм Тирелли, Пол Херман, Нэнси Джиллз, Джордан Талер, Дэна Камински, Харви Миллер, Трэйси Рейнер, Джеймс Экхаус, Линда Джиллен, Милдред Р. Вандевер, Берт Голдштейн, Кевин Мини, Питер МакРобби, Пол Джей.Кью. Ли, Дебра Джо Рапп, Кейт Реддин, Лела Айви, Долорес Мессина, Гордон Пресс, Джордж Дж. Мэнос, Винни Капоне, Сьюзэн Уайлдер, Джон Ротмен, Джадд Тричтер, Паскуале Пульезе
Перевод: Профессиональный многоголосый, Авторский-Сюжет фильма
Все дети мечтают стать большими, но для 12-летнего Джошуа эта мечта воплотилась в реальность неожиданно быстро. Вечером он был еще маленьким мальчиком, а утром проснулся взрослым мужчиной. Но вся загвостка в том что, несмотря на внешний вид, по сути, он остался таким же ребенком как был. Теперь ему предстоит лицом к лицу встретиться со всеми прелестями взрослой жизни: самому завязывать шнурки, бриться, устраиваться на работу и конечно назначать свидания девушкам. Но детская энергичность и непосредственность не позволяют Джошуа спокойно пройти мимо парка аттракционов или магазина игрушек... А восхитительная игра Тома Хэнкса не даст вам шанса усомниться, в том, что в тело 30-летнего мужчины вселился ребенок...-Файл
Качество: BDRip 1080p (исходник Blu-ray)
Видео: 1918x1036, 9 641 Кбит/сек, 23,976 кадр/сек, AVC, x264, [email protected], 0.202 Бит/[Пиксели*Кадры], 2pass
Аудио 1: AC-3, 448 Кбит/сек, 6 канала(ов), 48,0 КГц -профессиональный многоголосный закадровый
Аудио 2: AC-3, 192 Кбит/сек, 2 канала(ов), 48,0 КГц - авторский одноголосный (Михалёв)
Аудио 1: AC-3, 192 Кбит/сек, 2 канала(ов), 48,0 КГц -авторский одноголосный (Гаврилов)
Аудио 2: AC-3, 448 Кбит/сек, 6 канала(ов), 48,0 КГц - оригинальная англоязычная озвучка
Чаптеры: есть
Субтитры: Русские
Продолжительность: 01:44:12

-

MediaInfo

Format : Matroska
Format version : Version 2
File size : 7.95 GiB
Duration : 1h 44mn
Overall bit rate : 10.9 Mbps
Movie name : Большой.(1988).BDRip.1080p.[denis100]
Encoded date : UTC 2013-12-06 07:56:42
Writing application : mkvmerge v5.8.0 ('No Sleep / Pillow') built on Sep 2 2012 15:37:04
Writing library : libebml v1.2.3 + libmatroska v1.3.0
Video
ID : 1
Format : AVC
Format/Info : Advanced Video Codec
Format profile : [email protected]
Format settings, CABAC : Yes
Format settings, ReFrames : 4 frames
Codec ID : V_MPEG4/ISO/AVC
Duration : 1h 44mn
Bit rate : 9 641 Kbps
Width : 1 918 pixels
Height : 1 036 pixels
Display aspect ratio : 1.85:1
Frame rate mode : Constant
Frame rate : 23.976 fps
Color space : YUV
Chroma subsampling : 4:2:0
Bit depth : 8 bits
Scan type : Progressive
Bits/(Pixel*Frame) : 0.202
Stream size : 6.86 GiB (86%)
Title : Большой.(1988).BDRip.1080p.[denis100]
Writing library : x264 core 140 r2377 1ca7bb9
Encoding settings : cabac=1 / ref=4 / deblock=1:-3:-3 / analyse=0x3:0x133 / me=umh / subme=11 / psy=1 / psy_rd=1.00:0.10 / mixed_ref=1 / me_range=32 / chroma_me=1 / trellis=2 / 8x8dct=1 / cqm=0 / deadzone=21,11 / fast_pskip=0 / chroma_qp_offset=-3 / threads=6 / lookahead_threads=1 / sliced_threads=0 / nr=0 / decimate=0 / interlaced=0 / bluray_compat=0 / constrained_intra=0 / bframes=7 / b_pyramid=2 / b_adapt=2 / b_bias=0 / direct=3 / weightb=1 / open_gop=0 / weightp=2 / keyint=240 / keyint_min=23 / scenecut=40 / intra_refresh=0 / rc=2pass / mbtree=0 / bitrate=9641 / ratetol=1.0 / qcomp=0.60 / qpmin=0 / qpmax=69 / qpstep=4 / cplxblur=20.0 / qblur=0.5 / ip_ratio=1.40 / pb_ratio=1.30 / aq=1:0.90
Language : English
Default : Yes
Forced : No
Audio #1
ID : 2
Format : AC-3
Format/Info : Audio Coding 3
Mode extension : CM (complete main)
Format settings, Endianness : Big
Codec ID : A_AC3
Duration : 1h 44mn
Bit rate mode : Constant
Bit rate : 448 Kbps
Channel count : 6 channels
Channel positions : Front: L C R, Side: L R, LFE
Sampling rate : 48.0 KHz
Bit depth : 16 bits
Compression mode : Lossy
Stream size : 334 MiB (4%)
Title : профессиональный многоголосный закадровый
Language : Russian
Default : Yes
Forced : No
Audio #2
ID : 3
Format : AC-3
Format/Info : Audio Coding 3
Mode extension : CM (complete main)
Format settings, Endianness : Big
Codec ID : A_AC3
Duration : 1h 44mn
Bit rate mode : Constant
Bit rate : 192 Kbps
Channel count : 2 channels
Channel positions : Front: L R
Sampling rate : 48.0 KHz
Bit depth : 16 bits
Compression mode : Lossy
Stream size : 143 MiB (2%)
Title : авторский одноголосный (Михалёв)
Language : Russian
Default : No
Forced : No
Audio #3
ID : 4
Format : AC-3
Format/Info : Audio Coding 3
Mode extension : CM (complete main)
Format settings, Endianness : Big
Codec ID : A_AC3
Duration : 1h 44mn
Bit rate mode : Constant
Bit rate : 192 Kbps
Channel count : 2 channels
Channel positions : Front: L R
Sampling rate : 48.0 KHz
Bit depth : 16 bits
Compression mode : Lossy
Stream size : 143 MiB (2%)
Title : авторский одноголосный (Гаврилов)
Language : Russian
Default : No
Forced : No
Audio #4
ID : 5
Format : AC-3
Format/Info : Audio Coding 3
Mode extension : CM (complete main)
Format settings, Endianness : Big
Codec ID : A_AC3
Duration : 1h 44mn
Bit rate mode : Constant
Bit rate : 448 Kbps
Channel count : 6 channels
Channel positions : Front: L C R, Side: L R, LFE
Sampling rate : 48.0 KHz
Bit depth : 16 bits
Compression mode : Lossy
Stream size : 334 MiB (4%)
Title : оригинальная англоязычная озвучка
Language : English
Default : No
Forced : No
Text
ID : 6
Format : UTF-8
Codec ID : S_TEXT/UTF8
Codec ID/Info : UTF-8 Plain Text
Title : Русские
Language : Russian
Default : No
Forced : No
Menu
00:00:00.000 : en:00:00:00.000
00:03:48.770 : en:00:03:48.770
00:04:30.019 : en:00:04:30.019
00:07:40.877 : en:00:07:40.877
00:10:51.942 : en:00:10:51.942
00:16:36.245 : en:00:16:36.245
00:25:47.671 : en:00:25:47.671
00:28:36.506 : en:00:28:36.506
00:35:50.773 : en:00:35:50.773
00:38:25.761 : en:00:38:25.761
00:42:36.553 : en:00:42:36.553
00:45:48.912 : en:00:45:48.912
00:48:12.431 : en:00:48:12.431
00:53:09.477 : en:00:53:09.477
00:56:20.335 : en:00:56:20.335
01:01:33.397 : en:01:01:33.397
01:06:05.586 : en:01:06:05.586
01:10:23.051 : en:01:10:23.051
01:19:41.276 : en:01:19:41.276
01:23:52.068 : en:01:23:52.068
01:27:59.482 : en:01:27:59.482
01:31:51.297 : en:01:31:51.297
01:37:18.957 : en:01:37:18.957
01:40:32.025 : en:01:40:32.025

Скриншоты

Яндекс.Метрика
Рейтинг@Mail.ru