Суперсооружения Третьего рейха / Nazi megastructure [01х01] (США, National Geographic)[2013,Документальный, постановочый, HDTVRip 720р]

 

Создавать темы 06-Дек-2013 15:53

Суперсооружения Третьего рейха / Nazi megastructures Год выпуска: 2013
Страна: США, National Geographic
Жанр: Документальный, постановочый
Продолжительность: 00:43:59
Перевод: Профессиональный (дублированный)
Русские субтитры: нет
Описание: В стремлении к мировому господству нацисты построили некоторые из самых амбициозных и смелых единиц боевой техники, а также разработали самые злодейские технологии в истории; создали продвинутые машины террора, огромные оборонительные системы и оружие массового уничтожения, чтобы завоевать континент и выиграть войну. Этот сериал о Второй Мировой войне рассказывает о ней с уникальной, новой точки зрения. В 6 эпизодах мы раскрываем секреты 6 знаковых инженерных Мегасооружений нацистов, рассказывая истории дизайнеров и инженеров, которые помогли создать их, и, показывая, как эти сооружения дали направление одному из самых смертоносных конфликтов в истории.
качество: HDTVRip
формат: MKV
Видео: AVC 2266 Кбит/с, 1280x720 , 25.000 fps
Аудио: Русский AC3, 2 ch, 192 Кбит/с
Аудио: Английский AC3, 6 ch, 384 Кбит/с
Официальный сайт ENG
Официальный сайт РУ

Релиз Работа со звуком

MediaInfo

Format : Matroska
Format version : Version 4 / Version 2
File size : 912 MiB
Duration : 43mn 59s
Overall bit rate : 2 900 Kbps
Encoded date : UTC 2013-12-05 13:52:38
Writing application : mkvmerge v6.5.0 ('Isn't she lovely') built on Oct 20 2013 12:50:05
Writing library : libebml v1.3.0 + libmatroska v1.4.1
Video
ID : 1
Format : AVC
Format/Info : Advanced Video Codec
Format profile : [email protected]
Format settings, CABAC : Yes
Format settings, ReFrames : 5 frames
Codec ID : V_MPEG4/ISO/AVC
Duration : 43mn 59s
Bit rate : 2 266 Kbps
Width : 1 280 pixels
Height : 720 pixels
Display aspect ratio : 16:9
Frame rate mode : Constant
Frame rate : 25.000 fps
Color space : YUV
Chroma subsampling : 4:2:0
Bit depth : 8 bits
Scan type : Progressive
Bits/(Pixel*Frame) : 0.098
Stream size : 713 MiB (78%)
Writing library : x264 core 138 r2358 9e941d1
Encoding settings : cabac=1 / ref=5 / deblock=1:0:0 / analyse=0x3:0x113 / me=umh / subme=8 / psy=1 / psy_rd=1.00:0.00 / mixed_ref=1 / me_range=16 / chroma_me=1 / trellis=1 / 8x8dct=1 / cqm=0 / deadzone=21,11 / fast_pskip=1 / chroma_qp_offset=-2 / threads=12 / lookahead_threads=2 / sliced_threads=0 / nr=0 / decimate=1 / interlaced=0 / bluray_compat=0 / constrained_intra=0 / bframes=3 / b_pyramid=2 / b_adapt=2 / b_bias=0 / direct=3 / weightb=1 / open_gop=0 / weightp=2 / keyint=250 / keyint_min=25 / scenecut=40 / intra_refresh=0 / rc_lookahead=50 / rc=crf / mbtree=1 / crf=21.0 / qcomp=0.60 / qpmin=0 / qpmax=69 / qpstep=4 / ip_ratio=1.40 / aq=1:1.00
Default : Yes
Forced : No
Audio #1
ID : 2
Format : AC-3
Format/Info : Audio Coding 3
Mode extension : CM (complete main)
Format settings, Endianness : Big
Codec ID : A_AC3
Duration : 43mn 59s
Bit rate mode : Constant
Bit rate : 192 Kbps
Channel count : 2 channels
Channel positions : Front: L R
Sampling rate : 48.0 KHz
Bit depth : 16 bits
Compression mode : Lossy
Stream size : 60.4 MiB (7%)
Title : АРК-ТВ
Language : Russian
Default : Yes
Forced : No
Audio #2
ID : 3
Format : AC-3
Format/Info : Audio Coding 3
Mode extension : CM (complete main)
Format settings, Endianness : Big
Codec ID : A_AC3
Duration : 43mn 59s
Bit rate mode : Constant
Bit rate : 384 Kbps
Channel count : 6 channels
Channel positions : Front: L C R, Side: L R, LFE
Sampling rate : 48.0 KHz
Bit depth : 16 bits
Compression mode : Lossy
Delay relative to video : 96ms
Stream size : 121 MiB (13%)
Language : English
Default : No
Forced : No

Внимание!

Раздача ведётся путём добавления новых выпусков"]При каждом добавлении создаётся новый торрент. Чтобы начать докачку нового выпуска, пользователям необходимо сделать следующее:
● остановить скачивание;
● удалить старый торрент у себя из клиента (старые выпуски удалять не надо);
● скачать новый торрент и запустить его у себя в клиенте вместо старого, при этом указать клиенту путь в старую папку куда и должно происходить скачивание новых выпусков;
● ваш клиент при запуске должен произвести хеширование (проверку) старой папки (если не производит сам - помогите ему сделать это), и будет докачивать только те выпуски, которых у вас ещё нет. Старые выпуски при этом не удаляются, а продолжают раздаваться!
● Eсли вы уже удалили старые выпуски, то предотвратить повторную закачку старых выпусков можно, отжав галочку в соответсвующих местах при запуске нового торрента.

Скриншоты

Яндекс.Метрика
Рейтинг@Mail.ru