[ Сегодня на трекере фрилич! Идет свободное скачивание без начисления Download ]

(Шансон) Александр Новиков - Лучшие песни [Новая Коллекция] - 2004, FLAC (image+.cue), lossless

 

Создавать темы 31-Май-2015 22:38

-Александр Новиков - Лучшие песни [Новая Коллекция]- Жанр: Шансон
Год выпуска диска: 2004
Производитель диска: Россия
Аудио кодек: FLAC
Тип рипа: image+.cue
Битрейт аудио: lossless
Продолжительность: 77:59
Источник (релизёр): helix-Трэклист:
01. Шансоньетка [04:30]
02. Освободился [04:25]
03. Красивоглазая [04:03]
04. Воробьи [04:09]
05. Уличная красотка [03:44]
06. Голубок [03:04]
07. Журавли над лагерем [04:51]
08. Девочка-иголка [03:56]
09. Пускай ты выпита другим [04:07]
10. Когда мне было 20 лет [04:09]
11. Катька [03:06]
12. Ты прохладой меня не мучай [03:34]
13. Улица восточная [04:08]
14. Помнишь, девочка [03:41]
15. Папиросники [02:46]
16. Друг мой, Колька [03:28]
17. С красавицей в обнимку [02:37]
18. Город древний [03:57]
19. Катилась по асфальту [05:07]
20. Вези меня, извозчик [04:37]

Лог EAC

Exact Audio Copy V0.99 prebeta 4 from 23. January 2008
Отчёт EAC об извлечении, выполненном 16. апреля 2009, 3:26
Александр Новиков / Лучшие песни [Новая Коллекция]
Дисковод: TSSTcorpCD/DVDW SH-S182D Adapter: 0 ID: 0
Режим чтения : Достоверность
Использование точного потока : Да
Отключение кэша аудио : Да
Использование указателей C2 : Нет
Коррекция смещения при чтении : 6
Способность читать области Lead-in и Lead-out : Нет
Заполнение пропущенных сэмплов тишиной : Да
Удаление блоков с тишиной в начале и конце : Нет
При вычислениях CRC использовались нулевые сэмплы : Да
Интерфейс : Установленный внешний ASPI-интерфейс
Выходной формат : Внутренние WAV-операции
Формат сэмплов : 44.100 Гц; 16 бит; стерео
TOC извлечённого CD
Трек | Старт | Длительность | Начальный сектор | Конечный сектор
---------------------------------------------------------------------
1 | 0:00.00 | 4:30.46 | 0 | 20295
2 | 4:30.46 | 4:24.34 | 20296 | 40129
3 | 8:55.05 | 4:03.36 | 40130 | 58390
4 | 12:58.41 | 4:08.47 | 58391 | 77037
5 | 17:07.13 | 3:44.00 | 77038 | 93837
6 | 20:51.13 | 3:04.38 | 93838 | 107675
7 | 23:55.51 | 4:50.67 | 107676 | 129492
8 | 28:46.43 | 3:55.40 | 129493 | 147157
9 | 32:42.08 | 4:07.25 | 147158 | 165707
10 | 36:49.33 | 4:08.64 | 165708 | 184371
11 | 40:58.22 | 3:06.22 | 184372 | 198343
12 | 44:04.44 | 3:33.72 | 198344 | 214390
13 | 47:38.41 | 4:07.62 | 214391 | 232977
14 | 51:46.28 | 3:40.54 | 232978 | 249531
15 | 55:27.07 | 2:46.19 | 249532 | 262000
16 | 58:13.26 | 3:28.21 | 262001 | 277621
17 | 61:41.47 | 2:36.60 | 277622 | 289381
18 | 64:18.32 | 3:57.42 | 289382 | 307198
19 | 68:15.74 | 5:06.44 | 307199 | 330192
20 | 73:22.43 | 4:36.43 | 330193 | 350935
Характеристики диапазона извлечения и сообщения об ошибках
Выбранный диапазон
Имя файла F:\UT\Новиков Александр_2004_Лучшие песни [Новая Коллекция]\Александр Новиков - Лучшие песни [Новая Коллекция].wav
Пиковый уровень 100.0 %
Качество диапазона 100.0 %
CRC копии D9DBE2E9
Копирование... OK
Ошибок не произошло
Конец отчёта

Spectrum

Яндекс.Метрика
Рейтинг@Mail.ru