Битва за Мён Рян / Myeong-ryang (Ким Хан Мин) [2014, приключения, военный, биография, BDRip 1080p] DVO (Ворон & Wenlana) + VO (GREEN TEA)

 

Создавать темы 31-Май-2015 10:58

Битва за Мён Рян / Myeong-ryang--

  • Год выпуска: 2014
  • Страна: Корея Южная
  • Жанр: приключения, военный, биография
  • Продолжительность: 02:08:17
  • Перевод: Любительский двухголосый [Ворон & Wenlana]
  • Перевод: Любительский одноголосый [GREEN TEA]
  • Субтитры: Английские
  • В ролях: Мин Сик Чхве, Сын Рён Рю, Мён Гон Ким, Чжин Гу, Чжин Ун Чо, Юл Квон, Чон Хён Ли, Мин У Но, Тхэ Хун Ким, Рёхеи Отани, Бо Гом Пак, Сын Чжун Ли, Гён Пё Го, Док Мун Чхве
  • Режиссёр: Ким Хан Мин

    Фильм рассказывает об известной битве за Мён Рян, состоявшейся в 1597 году во время японского вторжения в Корею. Тогда культовому адмиралу Ли Сунсину удалось уничтожить 133 японских корабля имея флот всего в 13 кораблей.--
  • Качество: BDRip 1080p
  • Формат: MKV
  • Видео кодек: AVC
  • Аудио кодек: AC3
  • Видео: AVC, 1920x800, 9754 Кбит/сек, 23.976 кадр/сек
  • Аудио: АС3, 448 Кбит/сек, 6 канала(ов), 48,0 КГц - Ворон & Wenlana
  • Аудио: АС3, 192 Кбит/сек, 2 канала(ов), 48,0 КГц - GREEN TEA
  • Аудио: АС3, 640 Кбит/сек, 6 канала(ов), 48,0 КГц - Корейский
-

MediaInfo:

General
Unique ID                   : 235240484673645696927752294658324902670 (0xB0F9AB5AF2D15DBABB64554776FD330E)
Complete name               : C:\Users\feedback\Desktop\The.Admiral.Roaring.Currents.2014.BDRip.1080p.mkv
Format                      : Matroska
Format version              : Version 4 / Version 2
File size                   : 10.1 GiB
Duration                    : 2h 8mn
Overall bit rate            : 11.3 Mbps
Movie name                  : The Admiral: Roaring Currents (2014)
Encoded date                : UTC 2015-05-17 03:12:30
Writing application         : mkvmerge v6.1.0 ('Old Devil') built on Mar  4 2013 09:10:42
Writing library             : libebml v1.3.0 + libmatroska v1.4.0
Attachements                : cover.jpg
_STATISTICS_WRITING_APP     : mkvmerge v7.8.0 ('River Man') 32bit built on Mar 27 2015 16:18:02
_STATISTICS_WRITING_DATE_UT : 2015-04-15 15:00:39
_STATISTICS_TAGS            : BPS DURATION NUMBER_OF_FRAMES NUMBER_OF_BYTES
DURATION                    : 02:00:47.690000000
NUMBER_OF_FRAMES            : 723
NUMBER_OF_BYTES             : 23937
Video
ID                          : 1
Format                      : AVC
Format/Info                 : Advanced Video Codec
Format profile              : [email protected]
Format settings, CABAC      : Yes
Format settings, ReFrames   : 5 frames
Codec ID                    : V_MPEG4/ISO/AVC
Duration                    : 2h 8mn
Bit rate                    : 9 754 Kbps
Width                       : 1 920 pixels
Height                      : 800 pixels
Display aspect ratio        : 2.40:1
Original display aspect rat : 16:9
Frame rate mode             : Constant
Frame rate                  : 23.976 fps
Color space                 : YUV
Chroma subsampling          : 4:2:0
Bit depth                   : 8 bits
Scan type                   : Progressive
Bits/(Pixel*Frame)          : 0.265
Stream size                 : 8.77 GiB (87%)
Title                       : The Admiral: Roaring Currents (2014)
Writing library             : x264 core 142 r2431+42 c69a006 tMod [[email protected]:2:0 X86_64]
Encoding settings           : cabac=1 / ref=5 / deblock=1:-3:-3 / analyse=0x3:0x133 / me=umh / subme=11 / psy=1 / fade_compensate=0.00 / psy_rd=1.00:0.15 / mixed_ref=1 / me_range=48 / chroma_me=1 / trellis=2 / 8x8dct=1 / cqm=0 / deadzone=21,11 / fast_pskip=0 / chroma_qp_offset=-3 / threads=18 / lookahead_threads=2 / sliced_threads=0 / nr=0 / decimate=0 / interlaced=0 / bluray_compat=0 / constrained_intra=0 / fgo=0 / bframes=5 / b_pyramid=2 / b_adapt=2 / b_bias=0 / direct=3 / weightb=1 / open_gop=0 / weightp=2 / keyint=250 / keyint_min=23 / scenecut=40 / intra_refresh=0 / rc_lookahead=250 / rc=crf / mbtree=1 / crf=19.5000 / qcomp=0.60 / qpmin=0:0:0 / qpmax=69:69:69 / qpstep=4 / vbv_maxrate=50000 / vbv_bufsize=62500 / crf_max=0.0 / nal_hrd=none / filler=0 / ip_ratio=1.40 / aq=3:0.90 / aq-sensitivity=10.00 / aq-factor=1.00:1.00:1.00 / aq2=0 / aq3=2:[0.60:0.60]:[0.60:0.60]:[0.60:0.60]:[0.60:0.60] / aq3-sensitivity=10.00 / aq3-factor=[1.00:1.00]:[1.00:1.00]:[1.00:1.00] / aq3-boundary=192:64:24
Language                    : Korean
Default                     : Yes
Forced                      : No
Color primaries             : BT.709
Transfer characteristics    : BT.709
Matrix coefficients         : BT.709
Color range                 : Limited
Audio #1
ID                          : 2
Format                      : AC-3
Format/Info                 : Audio Coding 3
Mode extension              : CM (complete main)
Format settings, Endianness : Big
Codec ID                    : A_AC3
Duration                    : 2h 8mn
Bit rate mode               : Constant
Bit rate                    : 448 Kbps
Channel(s)                  : 6 channels
Channel positions           : Front: L C R, Side: L R, LFE
Sampling rate               : 48.0 KHz
Bit depth                   : 16 bits
Compression mode            : Lossy
Stream size                 : 413 MiB (4%)
Title                       : DVO Ворон & Wenlana
Language                    : Russian
Default                     : Yes
Forced                      : Yes
Audio #2
ID                          : 3
Format                      : AC-3
Format/Info                 : Audio Coding 3
Mode extension              : CM (complete main)
Format settings, Endianness : Big
Codec ID                    : A_AC3
Duration                    : 2h 8mn
Bit rate mode               : Constant
Bit rate                    : 192 Kbps
Channel(s)                  : 2 channels
Channel positions           : Front: L R
Sampling rate               : 48.0 KHz
Bit depth                   : 16 bits
Compression mode            : Lossy
Stream size                 : 177 MiB (2%)
Title                       : VO (Green Tea)
Language                    : Russian
Default                     : No
Forced                      : No
Audio #3
ID                          : 4
Format                      : AC-3
Format/Info                 : Audio Coding 3
Mode extension              : CM (complete main)
Format settings, Endianness : Big
Codec ID                    : A_AC3
Duration                    : 2h 8mn
Bit rate mode               : Constant
Bit rate                    : 640 Kbps
Channel(s)                  : 2 channels
Channel positions           : Front: L R
Sampling rate               : 48.0 KHz
Bit depth                   : 16 bits
Compression mode            : Lossy
Stream size                 : 590 MiB (6%)
Language                    : Korean
Default                     : No
Forced                      : No
Text
ID                          : 5
Format                      : UTF-8
Codec ID                    : S_TEXT/UTF8
Codec ID/Info               : UTF-8 Plain Text
Language                    : English
Default                     : No
Forced                      : No
Menu
00:00:00.000                : en:00:00:00.000
00:08:19.040                : en:00:08:19.040
00:14:18.358                : en:00:14:18.358
00:19:24.121                : en:00:19:24.121
00:27:09.670                : en:00:27:09.670
00:33:54.282                : en:00:33:54.282
00:45:33.606                : en:00:45:33.606
00:51:59.199                : en:00:51:59.199
01:03:22.966                : en:01:03:22.966
01:16:38.427                : en:01:16:38.427
01:23:13.071                : en:01:23:13.071
01:26:46.827                : en:01:26:46.827
01:38:14.806                : en:01:38:14.806
01:43:33.833                : en:01:43:33.833
01:50:34.878                : en:01:50:34.878
01:56:34.196                : en:01:56:34.196
02:01:23.860                : en:02:01:23.860

Скриншоты:

Яндекс.Метрика
Рейтинг@Mail.ru