Институт Аттикус / The Atticus Institute (Крис Спарлинг) [2015, Ужасы, триллер, драма, BDRip 1080p] [Лицензия]

 

Создавать темы 31-Май-2015 10:51

Институт Аттикус / The Atticus Institute -Год выпуска: 2015
Страна: США, Safran Company
Жанр: Ужасы, триллер, драма
Продолжительность: 01:22:49
Перевод: Дублированный [Лицензия]
Субтитры: Английские-В ролях: Джулиан Акоста, Энн Бетанкур, Карлос Е. Кампос, Джейк Карпентер, Хит Сентаццо, Брайан Ченоуэт, Ханна Коули, Аарон Крэвен, Динарте де Фрейтас, Лэндалл Гулсби
Режиссёр: Крис Спарлинг-Описание: В 70-х годах доктором Генри Уэстом был создан институт Аттикус, в котором доктор Генри Уэст проводил над людьми с паранормальными способностями тесты. Доктор повидал самых различных людей с необычными способностями, но в скором времени у них оказалась Джудит Уистенд. Эта девушка показала самые невероятные способности, что привлекло внимание военных, решивших взять под собственный контроль Аттикус. При просмотре фильма ужасов 2015 - Институт Аттикус зрители увидят, что над Джудит проводилось множество экспериментов. После каждого сеанса ученые понимали, что в девушке заключена злая сила. Так они решают использовать девушку в военных целях. Но они не подумали о существовании силы, одолеть которую непосильно ни одному человеку.-Качество: BDRip (1080p)
Формат: MKV
Видео кодек: AVC
Аудио кодек: AC3
Видео: AVC,1920x1036,(1.85:1),9 100 Kbps,23.976 fps
Аудио: 1 AC3,48.0 KHz,6 ch,384 Kbps [Russian]
Аудио: 2 AC3,48.0 KHz,6 ch, 640 Kbps [English]

MediaInfo:

General
Unique ID                      : 235916654883330023091191096168118133956 (0xB17BE51ED8FE27FD846183E4958AA4C4)
Complete name                  : E:\Кино\Institut.Attikus.2015.D.BDRip.1080p.mkv
Format                         : Matroska
Format version                 : Version 4 / Version 2
File size                      : 5.85 GiB
Duration                       : 1h 22mn
Overall bit rate               : 10.1 Mbps
Encoded date                   : UTC 2015-05-18 04:59:08
Writing application            : mkvmerge v7.3.0 ('Nouages') 64bit built on Oct 22 2014 18:53:34
Writing library                : libebml v1.3.0 + libmatroska v1.4.1
DURATION                       : 01:22:48.992000000
NUMBER_OF_FRAMES               : 155281
NUMBER_OF_BYTES                : 238511616
_STATISTICS_WRITING_APP        : mkvmerge v7.3.0 ('Nouages') 64bit built on Oct 22 2014 18:53:34
_STATISTICS_WRITING_DATE_UTC   : 2015-05-18 04:59:08
_STATISTICS_TAGS               : BPS DURATION NUMBER_OF_FRAMES NUMBER_OF_BYTES
Video
ID                             : 1
Format                         : AVC
Format/Info                    : Advanced Video Codec
Format profile                 : [email protected]
Format settings, CABAC         : Yes
Format settings, ReFrames      : 4 frames
Codec ID                       : V_MPEG4/ISO/AVC
Duration                       : 1h 22mn
Bit rate                       : 9 100 Kbps
Width                          : 1 920 pixels
Height                         : 1 036 pixels
Display aspect ratio           : 1.85:1
Frame rate mode                : Constant
Frame rate                     : 23.976 fps
Color space                    : YUV
Chroma subsampling             : 4:2:0
Bit depth                      : 8 bits
Scan type                      : Progressive
Bits/(Pixel*Frame)             : 0.191
Stream size                    : 5.14 GiB (88%)
Writing library                : x264 core 146 r2538 121396c
Encoding settings              : cabac=1 / ref=4 / deblock=1:-3:-3 / analyse=0x3:0x133 / me=umh / subme=10 / psy=1 / psy_rd=1.15:0.05 / mixed_ref=1 / me_range=48 / chroma_me=1 / trellis=2 / 8x8dct=1 / cqm=0 / deadzone=21,11 / fast_pskip=0 / chroma_qp_offset=-3 / threads=6 / lookahead_threads=1 / sliced_threads=0 / nr=0 / decimate=1 / interlaced=0 / bluray_compat=0 / constrained_intra=0 / bframes=10 / b_pyramid=2 / b_adapt=2 / b_bias=0 / direct=3 / weightb=1 / open_gop=0 / weightp=2 / keyint=240 / keyint_min=23 / scenecut=40 / intra_refresh=0 / rc_lookahead=40 / rc=2pass / mbtree=0 / bitrate=9100 / ratetol=1.0 / qcomp=0.60 / qpmin=10 / qpmax=69 / qpstep=4 / cplxblur=20.0 / qblur=0.5 / vbv_maxrate=50000 / vbv_bufsize=50000 / nal_hrd=none / filler=0 / ip_ratio=1.40 / pb_ratio=1.20 / aq=1:1.00
Language                       : English
Default                        : Yes
Forced                         : Yes
DURATION                       : 01:22:48.964000000
NUMBER_OF_FRAMES               : 119136
NUMBER_OF_BYTES                : 5646455029
_STATISTICS_WRITING_APP        : mkvmerge v7.3.0 ('Nouages') 64bit built on Oct 22 2014 18:53:34
_STATISTICS_WRITING_DATE_UTC   : 2015-05-18 04:59:08
_STATISTICS_TAGS               : BPS DURATION NUMBER_OF_FRAMES NUMBER_OF_BYTES
Audio #1
ID                             : 2
Format                         : AC-3
Format/Info                    : Audio Coding 3
Mode extension                 : CM (complete main)
Format settings, Endianness    : Big
Codec ID                       : A_AC3
Duration                       : 1h 22mn
Bit rate mode                  : Constant
Bit rate                       : 384 Kbps
Channel(s)                     : 6 channels
Channel positions              : Front: L C R, Side: L R, LFE
Sampling rate                  : 48.0 KHz
Bit depth                      : 16 bits
Compression mode               : Lossy
Stream size                    : 227 MiB (4%)
Language                       : Russian
Default                        : Yes
Forced                         : Yes
Audio #2
ID                             : 3
Format                         : AC-3
Format/Info                    : Audio Coding 3
Mode extension                 : CM (complete main)
Format settings, Endianness    : Big
Codec ID                       : A_AC3
Duration                       : 1h 22mn
Bit rate mode                  : Constant
Bit rate                       : 640 Kbps
Channel(s)                     : 6 channels
Channel positions              : Front: L C R, Side: L R, LFE
Sampling rate                  : 48.0 KHz
Bit depth                      : 16 bits
Compression mode               : Lossy
Stream size                    : 379 MiB (6%)
Title                          : English [email protected]
Language                       : English
Default                        : No
Forced                         : No
Text
ID                             : 4
Format                         : UTF-8
Codec ID                       : S_TEXT/UTF8
Codec ID/Info                  : UTF-8 Plain Text
Title                          : English
Language                       : English
Default                        : No
Forced                         : No
Menu
00:00:00.000                   : en:00:00:00.000
00:03:02.349                   : en:00:03:02.349
00:10:45.603                   : en:00:10:45.603
00:19:56.404                   : en:00:19:56.404
00:26:01.310                   : en:00:26:01.310
00:34:06.670                   : en:00:34:06.670
00:39:49.137                   : en:00:39:49.137
00:49:38.225                   : en:00:49:38.225
00:55:49.888                   : en:00:55:49.888
01:02:28.161                   : en:01:02:28.161
01:09:00.345                   : en:01:09:00.345
01:19:37.356                   : en:01:19:37.356
-

Скриншоты:

Яндекс.Метрика
Рейтинг@Mail.ru