[ Сегодня на трекере фрилич! Идет свободное скачивание без начисления Download ]

Бесси / Bessie (Ди Риис) [2015, драма, биография, музыка, HDTV 1080p] [AMedia HD]

 

Создавать темы 31-Май-2015 10:49

Бесси / Bessie-Год выпуска: 2015
Страна: США, Flavor Unit Entertainment, HBO Films, Zanuck Company
Жанр: Драма, музыка, биография
Продолжительность: 01:47:16
Перевод: Профессиональный многоголосый [AMedia HD]
Субтитры: нет-В ролях: Куин Латифа, Майкл Кеннет Уильямс, Брайан Гринберг, Тика Самптер, Оливер Плэтт, Ханди Александер, Майк Эппс, Моник, Чарльз С. Даттон, Тори Киттлз
Режиссёр: Ди Риис-Описание: История легендарной блюз исполнительницы, Бесси Смит, которая поднялась к славе в 1920-х и 30-х годах.-Качество: HDTV 1080p
Формат: MKV
Видео кодек: AVC
Аудио кодек: AC3, MP2
Видео: MPEG-4 AVC, 6683 Кбит/с, 1920х1080, 25,000 кадров/сек
Аудио1: Russian: MPEG Audio Layer 2, 2.0, 48 kHz, 192 kbps (MVO)
Аудио2: Russian: АС-3, 5.1, 48 kHz, 384 kbps (MVO)
Аудио3: English: MPEG Audio Layer 2, 2.0, 48 kHz, 192 kbps

MediaInfo:

Общее
Идентификатор : 16 (0x10)
Полное имя : D:\Кино\Bessie_HD.ts
Формат : MPEG-TS
Размер файла : 5,88 Гбайт
Продолжительность : 1 ч. 47 м.
Режим общего битрейта : Переменный
Общий поток : 7847 Кбит/сек
Видео
Идентификатор : 1812 (0x714)
Идентификатор меню : 812 (0x32C)
Формат : AVC
Формат/Информация : Advanced Video Codec
Профиль формата : [email protected]
Параметр CABAC формата : Да
Параметр ReFrames формата : 4 кадра
Идентификатор кодека : 27
Продолжительность : 1 ч. 47 м.
Битрейт : 6683 Кбит/сек
Ширина : 1920 пикселей
Высота : 1080 пикселей
Соотношение сторон : 16:9
Частота кадров : 25,000 кадров/сек
Стандарт вещания : PAL
Цветовое пространство : YUV
Субдискретизация насыщенности : 4:2:0
Битовая глубина : 8 бит
Тип развёртки : MBAFF
Порядок развёртки : Верхнее поле первое
Бит/(Пиксели*Кадры) : 0.129
Размер потока : 5,01 Гбайт (85%)
Цветовой диапазон : Limited
Основные цвета : BT.709
Характеристики трансфера : BT.709
Коэффициенты матрицы : BT.709
Аудио #1
Идентификатор : 2812 (0xAFC)
Идентификатор меню : 812 (0x32C)
Формат : MPEG Audio
Версия формата : Version 1
Профиль формата : Layer 2
Идентификатор кодека : 4
Продолжительность : 1 ч. 47 м.
Вид битрейта : Постоянный
Битрейт : 192 Кбит/сек
Каналы : 2 канала
Частота : 48,0 КГц
Метод сжатия : С потерями
Задержка видео : 94 мс.
Размер потока : 147 Мбайт (2%)
Язык : std
Язык, дополнительно : Clean effects
Аудио #2
Идентификатор : 3812 (0xEE4)
Идентификатор меню : 812 (0x32C)
Формат : MPEG Audio
Версия формата : Version 1
Профиль формата : Layer 2
Идентификатор кодека : 4
Продолжительность : 1 ч. 47 м.
Вид битрейта : Постоянный
Битрейт : 192 Кбит/сек
Каналы : 2 канала
Частота : 48,0 КГц
Метод сжатия : С потерями
Задержка видео : 94 мс.
Размер потока : 147 Мбайт (2%)
Язык : English
Язык, дополнительно : Clean effects
Аудио #3
Идентификатор : 4812 (0x12CC)
Идентификатор меню : 812 (0x32C)
Формат : AC-3
Формат/Информация : Audio Coding 3
Расширение режима : CM (complete main)
Параметр Endianness формата : Big
Идентификатор кодека : 6
Продолжительность : 1 ч. 47 м.
Вид битрейта : Постоянный
Битрейт : 384 Кбит/сек
Каналы : 6 каналов
Расположение каналов : Front: L C R, Side: L R, LFE
Частота : 48,0 КГц
Битовая глубина : 16 бит
Метод сжатия : С потерями
Задержка видео : 183 мс.
Размер потока : 295 Мбайт (5%)
Язык : std
Язык, дополнительно : Clean effects
Текст
Идентификатор : 63 (0x3F)-100
Идентификатор меню : 812 (0x32C)
Формат : Teletext
Меню
Идентификатор : 812 (0x32C)
Идентификатор меню : 812 (0x32C)
Продолжительность : 1 ч. 47 м.
Список : 1812 (0x714) (AVC) / 2812 (0xAFC) (MPEG Audio, std) / 3812 (0xEE4) (MPEG Audio, English) / 4812 (0x12CC) (AC-3, std) / 63 (0x3F) ()
Язык : / std / English / std
-

Скриншоты:

Яндекс.Метрика
Рейтинг@Mail.ru