С любовью, Рози / Love, Rosie (Кристиан Диттер) [2014, мелодрама, комедия, BDRip 720p] [Чистый звук.]

 

Создавать темы 31-Май-2015 10:39

С любовью, Рози / Love, Rosie-Год выпуска: 2014
Страна: Германия, Великобритания, Canyon Creek Films, Constantin Film Produktion
Жанр: мелодрама, комедия
Продолжительность: 01:42:57
Перевод: Дубляж [Чистый звук]
Субтитры: Английские-В ролях: Лили Коллинз, Сэм Клафлин, Тэмсин Эгертон, Арт Паркинсон, Джэми Уинстон, Кристиан Кук, Суки Уотерхаус, Лили Лэйт, Джейк Мэнли, Норма Шихан
Режиссёр: Кристиан Диттер-Описание: Рози и Алекс были лучшими друзьями с детства, и теперь, по окончании школы, собираются вместе продолжить учебу в университете.
Однако в их судьбах происходит резкий поворот, когда после ночи со звездой школы Рози узнает, что у нее будет ребенок. Невзирая на то, что обстоятельства и жизненные ситуации разлучают героев, они и спустя годы продолжают помнить друг о друге и о том чувстве, что соединило их в юности…-Качество: BDRip 720p
Формат: MKV
Видео кодек: AVC
Аудио кодек: AC3, DTS
Видео: MPEG-4 AVC, 4567 Кбит/с, 1280x544, 23,976 fps
Аудио1: 48 kHz, AC3 Dolby Digital, 2/0 (L,R) ch, 384 kbps - Русский
Аудио2: DTS, 6 ch, 1510 Кбит/с, 48.0 KHz - Английский

MediaInfo:

Общее
Уникальный идентификатор : 191961403420252304710900591418025066088 (0x906A6BE7837729C7B831AF6E007E3E68)
Полное имя : D:\Кино\S.ljub0vju.R0z1.2014.D.BDRip.720p.mkv
Формат : Matroska
Версия формата : Version 4 / Version 2
Размер файла : 4,65 Гбайт
Продолжительность : 1 ч. 42 м.
Общий поток : 6461 Кбит/сек
Дата кодирования : UTC 2015-05-20 10:33:54
Программа кодирования : mkvmerge v6.5.0 ('Isn't she lovely') built on Oct 20 2013 12:50:05
Библиотека кодирования : libebml v1.3.0 + libmatroska v1.4.1
DURATION : 01:35:28.055000000
NUMBER_OF_FRAMES : 1262
NUMBER_OF_BYTES : 36537
_STATISTICS_WRITING_APP : mkvmerge v7.6.0 ('Garden of Dreams') 64bit built on Feb 8 2015 13:04:34
_STATISTICS_WRITING_DATE_UTC : 2015-02-27 23:36:08
_STATISTICS_TAGS : BPS DURATION NUMBER_OF_FRAMES NUMBER_OF_BYTES
Видео
Идентификатор : 1
Формат : AVC
Формат/Информация : Advanced Video Codec
Профиль формата : [email protected]
Параметр CABAC формата : Да
Параметр ReFrames формата : 5 кадров
Идентификатор кодека : V_MPEG4/ISO/AVC
Продолжительность : 1 ч. 42 м.
Битрейт : 4567 Кбит/сек
Ширина : 1280 пикселей
Высота : 544 пикселя
Соотношение сторон : 2,35:1
Режим частоты кадров : Постоянный
Частота кадров : 23,976 кадра/сек
Цветовое пространство : YUV
Субдискретизация насыщенности : 4:2:0
Битовая глубина : 8 бит
Тип развёртки : Прогрессивная
Бит/(Пиксели*Кадры) : 0.274
Размер потока : 3,19 Гбайт (69%)
Библиотека кодирования : x264 core 144 r2525 40bb568
Настройки программы : cabac=1 / ref=5 / deblock=1:-3:-3 / analyse=0x3:0x113 / me=umh / subme=8 / psy=1 / psy_rd=1.00:0.00 / mixed_ref=1 / me_range=16 / chroma_me=1 / trellis=1 / 8x8dct=1 / cqm=0 / deadzone=21,11 / fast_pskip=1 / chroma_qp_offset=-2 / threads=6 / lookahead_threads=1 / sliced_threads=0 / nr=0 / decimate=1 / interlaced=0 / bluray_compat=0 / constrained_intra=0 / bframes=3 / b_pyramid=2 / b_adapt=2 / b_bias=0 / direct=3 / weightb=1 / open_gop=0 / weightp=2 / keyint=240 / keyint_min=24 / scenecut=40 / intra_refresh=0 / rc_lookahead=50 / rc=2pass / mbtree=1 / bitrate=4567 / ratetol=1.0 / qcomp=0.60 / qpmin=0 / qpmax=69 / qpstep=4 / cplxblur=20.0 / qblur=0.5 / ip_ratio=1.40 / aq=1:1.00
Язык : English
Default : Да
Forced : Нет
DURATION : 01:42:57.171000000
NUMBER_OF_FRAMES : 148104
NUMBER_OF_BYTES : 3524805904
_STATISTICS_WRITING_APP : mkvmerge v7.6.0 ('Garden of Dreams') 64bit built on Feb 8 2015 13:04:34
_STATISTICS_WRITING_DATE_UTC : 2015-02-27 23:36:08
_STATISTICS_TAGS : BPS DURATION NUMBER_OF_FRAMES NUMBER_OF_BYTES
Аудио #1
Идентификатор : 2
Формат : AC-3
Формат/Информация : Audio Coding 3
Расширение режима : CM (complete main)
Параметр Endianness формата : Big
Идентификатор кодека : A_AC3
Продолжительность : 1 ч. 42 м.
Вид битрейта : Постоянный
Битрейт : 384 Кбит/сек
Каналы : 2 канала
Расположение каналов : Front: L R
Частота : 48,0 КГц
Битовая глубина : 16 бит
Метод сжатия : С потерями
Размер потока : 283 Мбайт (6%)
Язык : Russian
Default : Да
Forced : Нет
Аудио #2
Идентификатор : 3
Формат : DTS
Формат/Информация : Digital Theater Systems
Режим : 16
Параметр Endianness формата : Big
Идентификатор кодека : A_DTS
Продолжительность : 1 ч. 42 м.
Вид битрейта : Постоянный
Битрейт : 1509 Кбит/сек
Каналы : 6 каналов
Расположение каналов : Front: L C R, Side: L R, LFE
Частота : 48,0 КГц
Битовая глубина : 24 бит
Метод сжатия : С потерями
Размер потока : 1,09 Гбайт (23%)
Язык : English
Default : Нет
Forced : Нет
Текст #1
Идентификатор : 4
Формат : UTF-8
Идентификатор кодека : S_TEXT/UTF8
Идентификатор кодека/Информация : UTF-8 Plain Text
Заголовок : SDH
Язык : English
Default : Нет
Forced : Нет
Текст #2
Идентификатор : 5
Формат : UTF-8
Идентификатор кодека : S_TEXT/UTF8
Идентификатор кодека/Информация : UTF-8 Plain Text
Язык : English
Default : Нет
Forced : Нет
Меню
00:00:00.000 : en:00:00:00.000
00:09:48.213 : en:00:09:48.213
00:19:16.572 : en:00:19:16.572
00:27:58.468 : en:00:27:58.468
00:36:20.178 : en:00:36:20.178
00:45:14.545 : en:00:45:14.545
00:56:09.032 : en:00:56:09.032
01:03:27.262 : en:01:03:27.262
01:11:01.007 : en:01:11:01.007
01:20:34.329 : en:01:20:34.329
01:31:12.342 : en:01:31:12.342
01:38:35.535 : en:01:38:35.535
-

Скриншоты:

Яндекс.Метрика
Рейтинг@Mail.ru