Босиком по городу / Barefoot (Эндрю Флеминг) [2014, Драма, мелодрама, комедия, BDRip 720p]

 

Создавать темы 31-Май-2015 10:32

Босиком по городу / Barefoot-Год выпуска: 2014
Страна: США
Жанр: Драма, мелодрама, комедия
Продолжительность: 01:25:41
Перевод: Профессиональный (многоголосый, закадровый)
Субтитры: Русские, Английские-В ролях: Эван Рэйчел Вуд, Скотт Спидман, Трит Уильямс, Кейт Бёртон, Дж.К. Симмонс, Дж. Омар Кастро, Дэвид Дженсен, Жаклин Флеминг, Эшли Борман
Режиссёр: Эндрю Флеминг-Описание: Джей — гуляка и дебошир. Он не удерживается ни на одном рабочем месте, а собственная семья считает его законченным неудачником. После очередной выходки его направляют «отдать долг обществу» — поработать уборщиком в клинике для душевнобольных. Там он знакомится с пациенткой Дэйзи — обаятельной девушкой, которая выглядит вполне нормальной, но совершенно не адаптирована к окружающей действительности. Девушка быстро привязывается к Джею и даже сбегает вслед за ним из клиники. Теперь Джей должен решить, как быть дальше. С одной стороны у него есть приглашение на свадьбу брата, где его ждут вместе с девушкой, которой у него нет, с другой — Дэйзи, которая ни на шаг от него не отходит. Джей решается на аферу и отправляется на свадьбу вместе с Дэйзи…--Качество: BDRip 720p
Формат: MKV
Видео кодек: x264
Аудио кодек: AC3 (Rus), DTS (Eng)
Видео: 1280x720 at 23.976 fps, at ~5 500 kbps
Аудио 1: (Rus) AC3, 6ch, 448 kbps, 48kHz
Аудио 2: (Eng) DTS, 6ch, 768 kbps, 48kHz
Сэмпл:
здесь-

MI:

General
Unique ID                                : 183211384927384071990867131516470285089 (0x89D53AAF5EAA1933ADFFC632C7D9D321)
Complete name                            : C:\Files\Barefoot.2014.720p.BluRay.x264.DTS.mkv
Format                                   : Matroska
Format version                           : Version 4 / Version 2
File size                                : 4.04 GiB
Duration                                 : 1h 25mn
Overall bit rate                         : 6 755 Kbps
Encoded date                             : UTC 2015-05-21 16:59:02
Writing application                      : mkvmerge v7.0.0 ('Where We Going') 64bit built on Jun  9 2014 15:16:27
Writing library                          : libebml v1.3.0 + libmatroska v1.4.1
DURATION                                 : 01:18:46.101000000
NUMBER_OF_FRAMES                         : 1760
NUMBER_OF_BYTES                          : 12858527
_STATISTICS_WRITING_APP                  : mkvmerge v7.0.0 ('Where We Going') 64bit built on Jun  9 2014 15:16:27
_STATISTICS_WRITING_DATE_UTC             : 2015-05-21 16:59:02
_STATISTICS_TAGS                         : BPS DURATION NUMBER_OF_FRAMES NUMBER_OF_BYTES
Video
ID                                       : 1
Format                                   : AVC
Format/Info                              : Advanced Video Codec
Format profile                           : [email protected]
Format settings, CABAC                   : Yes
Format settings, ReFrames                : 9 frames
Codec ID                                 : V_MPEG4/ISO/AVC
Duration                                 : 1h 25mn
Bit rate                                 : 5 500 Kbps
Width                                    : 1 280 pixels
Height                                   : 720 pixels
Display aspect ratio                     : 16:9
Frame rate mode                          : Constant
Frame rate                               : 25.000 fps
Color space                              : YUV
Chroma subsampling                       : 4:2:0
Bit depth                                : 8 bits
Scan type                                : Progressive
Bits/(Pixel*Frame)                       : 0.239
Stream size                              : 3.23 GiB (80%)
Writing library                          : x264 core 146 r2538 121396c
Encoding settings                        : cabac=1 / ref=9 / deblock=1:-2:-2 / analyse=0x3:0x133 / me=umh / subme=11 / psy=1 / psy_rd=1.00:0.00 / mixed_ref=1 / me_range=24 / chroma_me=1 / trellis=2 / 8x8dct=1 / cqm=0 / deadzone=21,11 / fast_pskip=0 / chroma_qp_offset=-2 / threads=6 / lookahead_threads=1 / sliced_threads=0 / nr=0 / decimate=0 / interlaced=0 / bluray_compat=0 / constrained_intra=0 / bframes=8 / b_pyramid=2 / b_adapt=2 / b_bias=0 / direct=3 / weightb=1 / open_gop=0 / weightp=2 / keyint=250 / keyint_min=25 / scenecut=40 / intra_refresh=0 / rc_lookahead=60 / rc=2pass / mbtree=1 / bitrate=5500 / ratetol=1.0 / qcomp=0.60 / qpmin=11 / qpmax=69 / qpstep=4 / cplxblur=20.0 / qblur=0.5 / vbv_maxrate=62500 / vbv_bufsize=78125 / nal_hrd=none / filler=0 / ip_ratio=1.40 / aq=1:0.80
Language                                 : English
Default                                  : Yes
Forced                                   : No
Matrix coefficients                      : BT.709
Audio #1
ID                                       : 2
Format                                   : AC-3
Format/Info                              : Audio Coding 3
Mode extension                           : CM (complete main)
Format settings, Endianness              : Big
Codec ID                                 : A_AC3
Duration                                 : 1h 25mn
Bit rate mode                            : Constant
Bit rate                                 : 448 Kbps
Channel(s)                               : 6 channels
Channel positions                        : Front: L C R, Side: L R, LFE
Sampling rate                            : 48.0 KHz
Bit depth                                : 16 bits
Compression mode                         : Lossy
Stream size                              : 275 MiB (7%)
Language                                 : Russian
Default                                  : Yes
Forced                                   : No
Audio #2
ID                                       : 3
Format                                   : DTS
Format/Info                              : Digital Theater Systems
Mode                                     : 16
Format settings, Endianness              : Big
Codec ID                                 : A_DTS
Duration                                 : 1h 25mn
Bit rate mode                            : Constant
Bit rate                                 : 768 Kbps
Channel(s)                               : 6 channels
Channel positions                        : Front: L C R, Side: L R, LFE
Sampling rate                            : 48.0 KHz
Bit depth                                : 16 bits
Compression mode                         : Lossy
Stream size                              : 471 MiB (11%)
Language                                 : English
Default                                  : No
Forced                                   : No
Text #1
ID                                       : 4
Format                                   : PGS
Muxing mode                              : zlib
Codec ID                                 : S_HDMV/PGS
Codec ID/Info                            : The same subtitle format used on BDs/HD-DVDs
Language                                 : Russian
Default                                  : No
Forced                                   : No
Text #2
ID                                       : 5
Format                                   : PGS
Muxing mode                              : zlib
Codec ID                                 : S_HDMV/PGS
Codec ID/Info                            : The same subtitle format used on BDs/HD-DVDs
Language                                 : English
Default                                  : No
Forced                                   : No

Скриншоты:

Яндекс.Метрика
Рейтинг@Mail.ru