Всё ещё Элис / Still Alice (Ричард Глацер, Уош Уэстмоленд) [2014, драма, BDRip 1080p] [Лицензия]

 

Создавать темы 31-Май-2015 10:29

Всё ещё Элис / Still Alice--

  • Год выпуска: 2014
  • Страна: США, Франция
  • Жанр: драма
  • Продолжительность: 01:41:14
  • Перевод: Профессиональный многоголосый [Лицензия]
  • Субтитры: Русские, английские
  • В ролях: Джулианна Мур, Алек Болдуин, Кристен Стюарт, Кейт Босворт, Шэйн МакРей, Хантер Пэрриш, Сет Гиллиам, Стефан Канкен, Эрин Дрэйк
  • Режиссёр: Ричард Глацер, Уош Уэстмоленд

    Элис Хаулэнд - профессор Колумбийского университета, книга которой "От нейронов до существительных" является краеугольным камнем в изучении лингвистики. В свои пятьдесят лет она добилась в жизни всего, о чем только мечтала: много лет она прожила в счастливом браке с любимым человеком, с которым воспитала троих прекрасных детей, и всегда занималась любимым делом, благодаря чему добилась блистательной карьеры. Однако, на одной из лекции, Элис заметила, что начала забывать простые слова. С каждым днем ситуация лишь ухудшается, из-за чего женщина начинает чувствовать жуткий дискомфорт. Через некоторое время Элис узнает, что стремительная потеря памяти является следствием ранней стадии неизлечимого заболевания, которое совсем скоро уничтожит ее...--
  • Качество: BDRip 1080p
  • Формат: MKV
  • Видео кодек: AVC
  • Аудио кодек: AC3, DTS
  • Видео: AVC, 1920x1038, 13.1 Мбит/сек, 23.976 кадр/сек
  • Аудио: АС3, 384 Кбит/сек, 6 канала(ов), 48,0 КГц - Русский
  • Аудио: DTS, 1509 Кбит/сек, 6 канала(ов), 48,0 КГц - Английский
-

MediaInfo:

General
Unique ID                   : 179757631409416763957973813158119548533 (0x873C0F7D5822B9EF9EAA54D9B7052675)
Complete name               : C:\Users\feedback\Desktop\Still.Alice.2014.BDRip.1080p.mkv
Format                      : Matroska
Format version              : Version 4 / Version 2
File size                   : 10.8 GiB
Duration                    : 1h 41mn
Overall bit rate            : 15.3 Mbps
Encoded date                : UTC 2015-05-27 07:23:32
Writing application         : mkvmerge v6.1.0 ('Old Devil') built on Mar  4 2013 09:10:42
Writing library             : libebml v1.3.0 + libmatroska v1.4.0
Video
ID                          : 1
Format                      : AVC
Format/Info                 : Advanced Video Codec
Format profile              : [email protected]
Format settings, CABAC      : Yes
Format settings, ReFrames   : 4 frames
Codec ID                    : V_MPEG4/ISO/AVC
Duration                    : 1h 41mn
Bit rate                    : 13.1 Mbps
Width                       : 1 920 pixels
Height                      : 1 038 pixels
Display aspect ratio        : 1.85:1
Frame rate mode             : Constant
Frame rate                  : 23.976 fps
Color space                 : YUV
Chroma subsampling          : 4:2:0
Bit depth                   : 8 bits
Scan type                   : Progressive
Bits/(Pixel*Frame)          : 0.275
Stream size                 : 9.29 GiB (86%)
Writing library             : x264 core 146 r2538 121396c
Encoding settings           : cabac=1 / ref=4 / deblock=1:-3:-3 / analyse=0x3:0x113 / me=umh / subme=11 / psy=1 / psy_rd=1.00:0.00 / mixed_ref=1 / me_range=24 / chroma_me=1 / trellis=2 / 8x8dct=1 / cqm=0 / deadzone=21,11 / fast_pskip=0 / chroma_qp_offset=-2 / threads=12 / lookahead_threads=2 / sliced_threads=0 / nr=0 / decimate=1 / interlaced=0 / bluray_compat=0 / constrained_intra=0 / bframes=8 / b_pyramid=2 / b_adapt=2 / b_bias=0 / direct=1 / weightb=1 / open_gop=0 / weightp=2 / keyint=240 / keyint_min=23 / scenecut=40 / intra_refresh=0 / rc_lookahead=40 / rc=crf / mbtree=0 / crf=17.5 / qcomp=0.65 / qpmin=0 / qpmax=69 / qpstep=4 / vbv_maxrate=62500 / vbv_bufsize=78125 / crf_max=0.0 / nal_hrd=none / filler=0 / ip_ratio=1.30 / pb_ratio=1.20 / aq=1:0.70
Language                    : English
Default                     : Yes
Forced                      : Yes
Audio #1
ID                          : 2
Format                      : AC-3
Format/Info                 : Audio Coding 3
Mode extension              : CM (complete main)
Format settings, Endianness : Big
Codec ID                    : A_AC3
Duration                    : 1h 41mn
Bit rate mode               : Constant
Bit rate                    : 384 Kbps
Channel(s)                  : 6 channels
Channel positions           : Front: L C R, Side: L R, LFE
Sampling rate               : 48.0 KHz
Bit depth                   : 16 bits
Compression mode            : Lossy
Stream size                 : 278 MiB (3%)
Title                       : R5 Лицензия
Language                    : Russian
Default                     : Yes
Forced                      : Yes
Audio #2
ID                          : 3
Format                      : DTS
Format/Info                 : Digital Theater Systems
Mode                        : 16
Format settings, Endianness : Big
Codec ID                    : A_DTS
Duration                    : 1h 41mn
Bit rate mode               : Constant
Bit rate                    : 1 509 Kbps
Channel(s)                  : 6 channels
Channel positions           : Front: L C R, Side: L R, LFE
Sampling rate               : 48.0 KHz
Bit depth                   : 24 bits
Compression mode            : Lossy
Stream size                 : 1.07 GiB (10%)
Language                    : English
Default                     : No
Forced                      : No
Text #1
ID                          : 4
Format                      : UTF-8
Codec ID                    : S_TEXT/UTF8
Codec ID/Info               : UTF-8 Plain Text
Language                    : Russian
Default                     : No
Forced                      : No
Text #2
ID                          : 5
Format                      : UTF-8
Codec ID                    : S_TEXT/UTF8
Codec ID/Info               : UTF-8 Plain Text
Language                    : English
Default                     : No
Forced                      : No
Menu
00:00:00.000                : en:00:00:00.000
00:04:40.697                : en:00:04:40.697
00:11:03.246                : en:00:11:03.246
00:15:37.895                : en:00:15:37.895
00:21:34.668                : en:00:21:34.668
00:28:51.063                : en:00:28:51.063
00:36:54.546                : en:00:36:54.546
00:43:54.841                : en:00:43:54.841
00:49:39.518                : en:00:49:39.518
00:58:20.247                : en:00:58:20.247
01:05:08.863                : en:01:05:08.863
01:11:36.000                : en:01:11:36.000
01:16:38.886                : en:01:16:38.886
01:20:02.172                : en:01:20:02.172
01:27:08.849                : en:01:27:08.849
01:30:08.945                : en:01:30:08.945

Скриншоты:

Яндекс.Метрика
Рейтинг@Mail.ru